Завантажити та скачати торренти українською


Лабораторія Декстера (Сезон 1) / Dexter's laboratory (Season 1) (1995-1997) AVC Ukr/Eng

Нові коментарі

Нова тема   Відповісти
Останній раз роздавалося Arsenfpu (2016-12-10)
Автор Повідомлення
TheCrazyGamer 
Новенький


З нами з: 23.08.15
Востаннє: 09.12.16
Повідомлень: 24

2016-09-18 19:59  
Лабораторія Декстера (Сезон 1) / Dexter's laboratory (Season 1) (1995-1997) AVC Ukr/Eng


Жанр: мультсеріал, комедія.
Країна: США



Режисер: Роб Ренцетті, Пол Радіш, Крейг Маккракен, Роберт Альварез, Румен Петков і Крис Савіно
Ролі озвучують: Крістін Кавано, Кенді Міло, Еллісон Мур, Кетрін Крессідо, Кет Сузі, Джефф Беннетт, Едді Дізен

Сюжет:
Маленький геній-коротун, який обожнює свою лабораторію, у якій він сидить цілими днями, роблячи експерименти і ненавидить вулицю, бо думає, що вона — обитель зла, вічно попадає у різні халепи. Також у нього є сестра Ді Ді, яка вічно зриває його експерименти через цікавість і тягу нашкодити меншому брату. А ще у нього є батьки, які дуже люблять своїх дітей, але майже не приділяють їм часу. Мама вічно трудиться на кухні, а тато завжди читає газету, а сам Декстер у цей час робить божевільні експерименти. У нього завжди з'являються проблеми, які він намагається вирішити завдяки своєму величезному мозку.

Тривалість: 1 серія: ~ 22 хв. (цілком серій: 12)
Перелік серій
1. Різнорівнева Ді Ді - Магманамус - Битва матерів / Deedeemensional / Magmanamus / Maternal Combat
2. Гра у вибивного - Реслер - Помічниця Декстера / Dexter Dodgeball / Rasslor / Dexter's Assistant
3. Суперник Декстера - Сіміон - Старий Декстер / Dexter's Rival / Simion / Old Man Dexter
4. Подвійна проблема - Гриль - Лабораторія Декстера / Double Trouble / Barbequor/ Dexter's Laboratory
5. Jurassic Pooch/Dial M for Monkey: Orgon Grindor/Dimwit Dexter
6. Кімната Ді Ді - Мисливець - Велика сестра / Dee Dee's Room / Huntor / The Big Sister
7. Зірковий помічник - Телевізійні супер друзі - Кінець гри / Star Spangled Sidekicks / TV Super Pals / Game Over
8. Блюз для няньки - Кімната Валхолена - Машина снів / Babysitter Blues / Valhallen's Room / Dream Machine
9. Драма в ляльковому будиночку - Кохана Каменюки - Сирний омлет / Dollhouse Drama / Krunk's Date / The Big Cheese
10. Шлях Ді Ді - Дядечко Сем - Дівчаче плем'я / Way of the Dee Dee / Say Uncle Sam / Tribe Called Girl
11. Космічний жах - Пацюкмен - Борг Декстера / Spacecase / Ratman / Dexter's Debt
12. Суперник Декстера - Де бджола? - Мандарк / Dexter's Rival / Bee Where? / Mandarker
13. Надувна Ді Ді - Не можу спати - Монсторія / Inflata Dee Dee / Can't Nap / Monstory

Червоним відмічені відсутні серії
Зеленим відмічені серії з низькою якістю звуку
Якість: AVC
Відео:
кодек:
розмір кадру: 720 x 576
бітрейт: ~ 1918 кб/с

Аудіо #1:
мова: українська
переклад: двоголосий закадровий
кодек: 2.0
бітрейт: 192 кб/с

Аудіо #2:
мова: англійська
переклад: оригінал
кодек: 2.0
бітрейт: 224 кб/с

Переклад і озвучення виконано:
Студією ''Стар-Майстер'' на замовлення телеканалу ''ТЕТ''.
Інформація про переклад
Ролі озвучили: Ярослав Чорненький і Романько Кисельова
MediaInfo
Код:
General
Unique ID                      : 254694144768814499063676154768980837116 (0xBF9C4ED98C917C8D8BD7A32323C602FC)
Format                         : Matroska
Format version                 : Version 2
File size                      : 362 MiB
Duration                       : 21 min
Overall bit rate               : 2 380 kb/s
Encoded date                   : UTC 2016-09-16 10:23:51
Writing application            : mkvmerge v4.2.0 ('No Talking') сборка от Jul 28 2010 18:38:23
Writing library                : libebml v1.0.0 + libmatroska v1.0.0

Video
ID                             : 1
Format                         : AVC
Format/Info                    : Advanced Video Codec
Format profile                 : [email protected]
Format settings, CABAC         : Yes
Format settings, ReFrames      : 8 frames
Muxing mode                    : Header stripping
Codec ID                       : V_MPEG4/ISO/AVC
Duration                       : 21 min
Bit rate                       : 1 916 kb/s
Width                          : 720 pixels
Height                         : 576 pixels
Display aspect ratio           : 4:3
Original display aspect ratio  : 5:4
Frame rate mode                : Constant
Frame rate                     : 25.000 FPS
Standard                       : PAL
Color space                    : YUV
Chroma subsampling             : 4:2:0
Bit depth                      : 8 bits
Scan type                      : Progressive
Bits/(Pixel*Frame)             : 0.185
Stream size                    : 291 MiB (81%)
Writing library                : core 129 r2245 bc13772
Encoding settings              : cabac=1 / ref=8 / deblock=1:1:1 / analyse=0x3:0x133 / me=umh / subme=9 / psy=1 / psy_rd=0.40:0.00 / mixed_ref=1 / me_range=16 / chroma_me=1 / trellis=2 / 8x8dct=1 / cqm=0 / deadzone=21,11 / fast_pskip=1 / chroma_qp_offset=-2 / threads=9 / lookahead_threads=1 / sliced_threads=0 / nr=0 / decimate=1 / interlaced=0 / bluray_compat=0 / constrained_intra=0 / bframes=8 / b_pyramid=2 / b_adapt=2 / b_bias=0 / direct=3 / weightb=1 / open_gop=0 / weightp=2 / keyint=250 / keyint_min=25 / scenecut=40 / intra_refresh=0 / rc_lookahead=60 / rc=crf / mbtree=1 / crf=18.0 / qcomp=0.60 / qpmin=0 / qpmax=69 / qpstep=4 / ip_ratio=1.40 / aq=1:0.60
Default                        : Yes
Forced                         : No

Audio #1
ID                             : 2
Format                         : AC-3
Format/Info                    : Audio Coding 3
Mode extension                 : CM (complete main)
Format settings, Endianness    : Big
Muxing mode                    : Header stripping
Codec ID                       : A_AC3
Duration                       : 21 min
Bit rate mode                  : Constant
Bit rate                       : 192 kb/s
Channel(s)                     : 2 channels
Channel positions              : Front: L R
Sampling rate                  : 48.0 kHz
Frame rate                     : 31.250 FPS (1536 spf)
Compression mode               : Lossy
Stream size                    : 29.2 MiB (8%)
Title                          : TET
Language                       : Ukrainian
Default                        : Yes
Forced                         : No

Audio #2
ID                             : 3
Format                         : AC-3
Format/Info                    : Audio Coding 3
Mode extension                 : CM (complete main)
Format settings, Endianness    : Big
Muxing mode                    : Header stripping
Codec ID                       : A_AC3
Duration                       : 21 min
Bit rate mode                  : Constant
Bit rate                       : 224 kb/s
Channel(s)                     : 2 channels
Channel positions              : Front: L R
Sampling rate                  : 48.0 kHz
Frame rate                     : 31.250 FPS (1536 spf)
Compression mode               : Lossy
Stream size                    : 34.1 MiB (9%)
Language                       : English
Default                        : No
Forced                         : No

Menu
00:00:00.000                   : en:Deedeemensional
00:07:04.000                   : en:Magmanamus
00:13:44.000                   : en:Maternal Combat
Скріншоти
Увага! Розшукуються записи 5 серії чи 3-4 у кращій якості.

Джерело:
Особиста оцінка: 10 - без зайвих вагань рекомендую всім!
Цитата:
Подяки:
За зведення звуку TheCrazyGamer.
За записи 1-2 серій 4erkov.
За сирі доріжки 3-4 серій Hulk1987.



Срібний реліз (на рейтинг впливає 50% завантаженого)
 Трекер:    Зареєстрований   

Завантажити / скачати мультфільм українською



відео для новачків



 Зареєстрований:   2016-09-19 18:11
 Розмір:   5.25 GB 
 Оцінка мультсеріалу:   10/10 (Голосів: 5)
   
bot 
робот


З нами з: 30.09.07
Востаннє: 26.05.05
Повідомлень: 16050

2016-09-18 20:00  
Тему перенесено з Мультсеріали до форуму Анонси релізів


TheCrazyGamer

bot 
робот


З нами з: 30.09.07
Востаннє: 26.05.05
Повідомлень: 16050

2016-09-19 18:06  
Тему перенесено з Анонси релізів до форуму Мультсеріали


TheCrazyGamer

Ваш часовий пояс: GMT + 2 Години

Нова тема   Відповісти