Завантажити та скачати торренти українською


Воркрафт (Варкрафт): Початок / Warcraft (2016) 1080p 3D [HalfOverUnder] Ukr/Eng

Нові коментарі

Нова тема   Відповісти
Автор Повідомлення
-VipeR- 
VIP


З нами з: 17.07.08
Востаннє: 09.12.16
Повідомлень: 275

2016-09-16 16:52  
Воркрафт (Варкрафт): Початок / Warcraft (2016) 1080p 3D [HalfOverUnder] Ukr/Eng

Воркрафт (Варкрафт): Початок / Warcraft (2016) 1080p 3D [HalfOverUnder] Ukr/Eng


Жанр: пригоди, фентезі, дія
Країна: США, Канада, Японія, Китай



Кінокомпанія: Universal Pictures, Atlas Entertainment, Legendary Pictures, Blizzard Entertainment
Режисер: Дункан Джонс
Актори: Бен Фостер, Тобі Кеббелл, Домінік Купер, Раян Роббінс, Роберт Казінськи, Тревіс Фіммел, Паула Паттон, Кленсі Браун, Каллен Мулвей, Рут Неґґа

Сюжет:
Фантастичний фільм від режисера "Місяць 2112" і "Початкового Коду" Дункана Джонса. Епічна стрічка про протистояння людей і орків, заснована на серії популярних відеоігор та романів. Королівство Азерота знаходиться на порозі війни. Мирні жителі зі своїм ватажком Андуіном Лотаром стикаються із расою жорстоких загарбників - орків. Ті, в свою чергу, шукають нову землю, бо їхня батьківщина Дренор більше не придатна для життя. Два світи з'єднає Темний портал, за допомогою якого військо ватажка орків Дуротана увірветься на землі людей. Яка раса візьме гору в цій смертельній сутичці?


Тривалість: 02:03:07
Якість: 1080p 3D [HalfOverUnder] (ash61)
Відео:
кодек:
розмір кадру: 1920 х 1080
бітрейт: 14.4 мбіт/c

Аудіо # 1:
мова: українська
переклад: професійний дубльований
кодек: 2.0
бітрейт: 192 кб/с

Аудіо # 2:
мова: українська
переклад: професійний дубльований
кодек: 5.1 by Wensum
бітрейт: 384 кб/с

Аудіо # 3:
мова: англійська
переклад: оригінал
кодек: 5.1
бітрейт: 640 кб/с

Субтитри: (окремо)
мова: українська (форсовані - завантажити, повні - завантажити)
тип: програмні (м'які)
формат: *.srt
MediaInfo
Код:
General
Unique ID                      : 203797538836453290197157057588340673937 (0x9951FA6F7E50E129A91062F168874D91)
Complete name                  : D:\3D\Художні\Warcraft (2016) 1080p 3D [HalfOverUnder] [ukr.eng].mkv
Format                         : Matroska
Format version                 : Version 4 / Version 2
File size                      : 13.5 GiB
Duration                       : 2h 3mn
Overall bit rate               : 15.6 Mbps
Movie name                     : Варкрафт / Warcraft (2016) в 3Д
Encoded date                   : UTC 2016-10-09 09:35:47
Writing application            : mkvmerge v8.8.0 ('Wind at my back') 64bit
Writing library                : libebml v1.3.3 + libmatroska v1.4.4
Cover                          : Yes
Attachments                    : cover.jpg

Video
ID                             : 1
Format                         : AVC
Format/Info                    : Advanced Video Codec
Format profile                 : [email protected]
Format settings, CABAC         : Yes
Format settings, ReFrames      : 4 frames
Codec ID                       : V_MPEG4/ISO/AVC
Duration                       : 2h 3mn
Bit rate                       : 14.4 Mbps
Width                          : 1 920 pixels
Height                         : 1 080 pixels
Display aspect ratio           : 16:9
Frame rate mode                : Constant
Frame rate                     : 23.976 (24000/1001) fps
Color space                    : YUV
Chroma subsampling             : 4:2:0
Bit depth                      : 8 bits
Scan type                      : Progressive
Bits/(Pixel*Frame)             : 0.290
Stream size                    : 12.4 GiB (92%)
Title                          : by Ash61
Writing library                : core 146 r2538 121396c
Encoding settings              : cabac=1 / ref=4 / deblock=1:-3:-3 / analyse=0x3:0x113 / me=umh / subme=10 / psy=1 / psy_rd=1.00:0.00 / mixed_ref=1 / me_range=32 / chroma_me=1 / trellis=2 / 8x8dct=1 / cqm=0 / deadzone=21,11 / fast_pskip=1 / chroma_qp_offset=-2 / threads=12 / lookahead_threads=3 / sliced_threads=0 / nr=0 / decimate=1 / interlaced=0 / bluray_compat=0 / constrained_intra=0 / bframes=10 / b_pyramid=2 / b_adapt=2 / b_bias=0 / direct=3 / weightb=1 / open_gop=0 / weightp=2 / keyint=250 / keyint_min=23 / scenecut=40 / intra_refresh=0 / rc_lookahead=60 / rc=crf / mbtree=1 / crf=15.3 / qcomp=0.70 / qpmin=0 / qpmax=69 / qpstep=4 / vbv_maxrate=40000 / vbv_bufsize=30000 / crf_max=0.0 / nal_hrd=none / filler=0 / frame-packing=4 / ip_ratio=1.40 / aq=1:0.70
Language                       : English
Default                        : Yes
Forced                         : No

Audio #1
ID                             : 2
Format                         : AC-3
Format/Info                    : Audio Coding 3
Mode extension                 : CM (complete main)
Format settings, Endianness    : Big
Codec ID                       : A_AC3
Duration                       : 2h 3mn
Bit rate mode                  : Constant
Bit rate                       : 192 Kbps
Channel(s)                     : 2 channels
Channel positions              : Front: L R
Sampling rate                  : 48.0 KHz
Frame rate                     : 31.250 fps (1536 spf)
Compression mode               : Lossy
Stream size                    : 169 MiB (1%)
Title                          : Дубляж - Line (последние 2 минуты титров без музыки)
Language                       : Ukrainian
Default                        : Yes
Forced                         : No

Audio #2
ID                             : 3
Format                         : AC-3
Format/Info                    : Audio Coding 3
Mode extension                 : CM (complete main)
Format settings, Endianness    : Big
Codec ID                       : A_AC3
Duration                       : 2h 3mn
Bit rate mode                  : Constant
Bit rate                       : 384 Kbps
Channel(s)                     : 6 channels
Channel positions              : Front: L C R, Side: L R, LFE
Sampling rate                  : 48.0 KHz
Frame rate                     : 31.250 fps (1536 spf)
Compression mode               : Lossy
Stream size                    : 338 MiB (2%)
Title                          : 5.1 by Wensun
Language                       : Ukrainian
Default                        : No
Forced                         : No

Audio #3
ID                             : 4
Format                         : AC-3
Format/Info                    : Audio Coding 3
Mode extension                 : CM (complete main)
Format settings, Endianness    : Big
Codec ID                       : A_AC3
Duration                       : 2h 3mn
Bit rate mode                  : Constant
Bit rate                       : 640 Kbps
Channel(s)                     : 6 channels
Channel positions              : Front: L C R, Side: L R, LFE
Sampling rate                  : 48.0 KHz
Frame rate                     : 31.250 fps (1536 spf)
Compression mode               : Lossy
Stream size                    : 564 MiB (4%)
Title                          : Original - BD 3D
Language                       : English
Default                        : No
Forced                         : No

Menu
00:00:00.000                   : :1
00:09:26.481                   : :2
00:15:49.405                   : :3
00:22:36.145                   : :4
00:29:16.171                   : :5
00:38:43.320                   : :6
00:46:44.092                   : :7
00:53:02.679                   : :8
00:56:17.331                   : :9
01:02:43.925                   : :10
01:07:48.313                   : :11
01:12:24.547                   : :12
01:17:13.045                   : :13
01:22:45.668                   : :14
01:26:32.145                   : :15
01:32:29.668                   : :16
01:40:25.101                   : :17
01:47:38.118                   : :18
01:51:12.832                   : :19
01:53:58.832                   : :20
Скріншоти
Джерело: &
Особиста оцінка: 0 - не дивився

Відео для перегляду на 3D обладнанні!


 Трекер:    Зареєстрований   

Завантажити / скачати фільм українською



відео для новачків



 Зареєстрований:   2016-10-09 12:11
 Розмір:   13.45 GB 
 Оцінка фільму:   8.8/10 (Голосів: 15)
   
drogoby4 
Новенький


З нами з: 18.10.12
Востаннє: 10.12.16
Повідомлень: 16

2016-09-18 12:39  
Дякую,довго чекав на 3d
His_Infernal_Majesty 
Новенький


З нами з: 01.12.14
Востаннє: 09.12.16
Повідомлень: 12

2016-09-20 10:16  
Цитата:
Дякую,довго чекав на 3d

мучився так само, заради 3D Wide grin, але не шкодую- ефекти на висоті

Wensun 
Частий відвідувач


З нами з: 20.01.09
Востаннє: 06.12.16
Повідомлень: 47

2016-10-02 23:15  
http://www.ex.ua/646817846190 доріжка 5.1 самопал. центральний правий канал з української 2.0 і решта звуки з гамериканської 5.1. тобто при перегляді фільму, на кадрі, де є великі приміщення, з ефектом "відлуння" (ехо), буде чутно англійською... може зо 3 епізоди в фільмі... Viper будьласка добав до роздачі окремою доріжкою. доріжка перевірена сьогодні.
Дякую.
п.с.
доріжка на торенті 2 роки не стоїть, гора 2 тижні.. (може)

-VipeR- 
VIP


З нами з: 17.07.08
Востаннє: 09.12.16
Повідомлень: 275

2016-10-09 12:14  
Реліз оновлено!

Додав 5.1 доріжку від пана Wensum

Прохання підтримати роздачу!
золото на тиждень

Skiff_1956 
Новенький


З нами з: 14.09.14
Востаннє: 10.12.16
Повідомлень: 8

2016-10-09 14:27  
Прошу закиньте доріжку від Wensum 5.1 окремо!!!
-VipeR- 
VIP


З нами з: 17.07.08
Востаннє: 09.12.16
Повідомлень: 275

2016-10-09 14:28  
Skiff_1956
Wensun написано:
http://www.ex.ua/646817846190 доріжка 5.1

Skiff_1956 
Новенький


З нами з: 14.09.14
Востаннє: 10.12.16
Повідомлень: 8

2016-10-09 14:29  
Дякую!!!
neorom 
Відео Гуртом - фільмокрай
Відео Гуртом - фільмокрай


З нами з: 27.01.11
Востаннє: 09.10.16
Повідомлень: 397

2016-10-09 14:29  
Теж вдячний!!!
igor911 
Відео Гуртом
Відео Гуртом


З нами з: 18.01.08
Востаннє: 10.12.16
Повідомлень: 5213

2016-10-20 21:55  
Додав в шапку посилання на українські форсовані (від Ash61) та повні субтитри (BD CEE).
boroznaya 
VIP


З нами з: 02.11.12
Востаннє: 10.12.16
Повідомлень: 1886

2016-11-10 12:48  
Хто робитиме avi-шку?
igor911 
Відео Гуртом
Відео Гуртом


З нами з: 18.01.08
Востаннє: 10.12.16
Повідомлень: 5213

2016-11-10 13:34  
boroznaya, авішка давно є http://toloka.to/t74886
motaem 
Новенький


З нами з: 04.05.12
Востаннє: 02.12.16
Повідомлень: 1

2016-11-29 14:43  
Чи можна десь закачати звукову доріжку українськю?
тут не знайшов http://dorizhky.hurtom.com/

Ваш часовий пояс: GMT + 2 Години

Нова тема   Відповісти