Завантажити та скачати торренти українською


Мільйони Брюстера / Brewster's Millions (1985) 720p Ukr/Eng | Sub Eng/Multi

Нові коментарі

Нова тема   Відповісти
Автор Повідомлення
Anonymous 







2016-09-15 17:58  
Мільйони Брюстера / Brewster's Millions (1985) 720p Ukr/Eng | Sub Eng/Multi

Мільйони Брюстера / Brewster's Millions (1985) 720p Ukr/Eng | Sub Eng/Multi


Жанр: комедія
Країна: США



Кінокомпанія: Universal Pictures, Davis Entertainment, Lawrence Gordon Productions, Silver Pictures
Режисер: Волтер Гіл / Walter Hill
Актори: Річард Прайор / Richard Pryor, Джон Кенді / John Candy, Лонетт МакКі / Lonette McKee, Стівен Коллінз / Stephen Collins, Джері Орбак / Jerry Orbach, Пет Гінґл / Pat Hingle, Това Фелдшух / Tovah Feldshuh, Г'юм Кронін / Hume Cronyn, Джо Ґріфазі / Joe Grifasi, Пітер Джейсон / Peter Jason та інші

Сюжет:
Сюжет фільму будується на тому, що гравець бейсбольної команди отримує від померлого ексцентричного родича (білого мільйонера) спадщину в сотні мільйонів доларів. Однак не все так просто. У заповіті є підступний пункт. Шкідливий стариган вказав у записаному на кіноплівку заповіті, що повністю суму спадкоємець отримає лише в тому випадку, якщо за місяць зможе витратити 30 мільйонів доларів до останнього цента.


Тривалість: 01:41:09
Якість: 720p
Відео:
кодек:
розмір кадру: 1280 х 694
бітрейт: 10,7 Мбіт/с

Аудіо # 1:
мова: українська
переклад: багатоголосий закадровий
кодек: 2.0
бітрейт: 192 Кбіт/с

Аудіо # 2:
мова: англійська
переклад: оригінал
кодек: FLAC 2.0
бітрейт: 605 Кбіт/с

Субтитри #1-7:
мова: англійська (повні, SDH), французька, німецька, італійська, португальська, іспанська
тип: програмні (м'які)
формат: *.srt

Збережено оригінальні розділи, як на Blu-ray.
MediaInfo
Код:
Complete name               : Brewster's Millions (1985) [Ukr,Eng sub.Eng.Multi] 720p [Hurtom].mkv
Format                      : Matroska
Format version              : Version 4 / Version 2
File size                   : 8.12 GiB
Duration                    : 1 h 41 min
Overall bit rate mode       : Variable
Overall bit rate            : 11.5 Mb/s
Movie name                  : Мільйони Брюстера / Brewster's Millions (1985) [Ukr,Eng sub.Eng.Multi] 720p [Hurtom-igor911]
Writing library             : libebml v1.3.4 + libmatroska v1.4.5
Cover                       : Yes
Attachments                 : cover.jpg

Video
ID                          : 1
Format                      : AVC
Format/Info                 : Advanced Video Codec
Format profile              : [email protected]
Format settings, CABAC      : Yes
Format settings, ReFrames   : 9 frames
Codec ID                    : V_MPEG4/ISO/AVC
Duration                    : 1 h 41 min
Bit rate                    : 10.7 Mb/s
Width                       : 1 280 pixels
Height                      : 694 pixels
Display aspect ratio        : 1.85:1
Frame rate mode             : Constant
Frame rate                  : 23.976 (24000/1001) FPS
Color space                 : YUV
Chroma subsampling          : 4:2:0
Bit depth                   : 8 bits
Scan type                   : Progressive
Bits/(Pixel*Frame)          : 0.502
Stream size                 : 7.56 GiB (93%)
Title                       : Мільйони Брюстера / Brewster's Millions (1985) 720p [HDClub-SbR]
Writing library             : core 148 r2705+54 9f484c1 t_mod_Custom [[email protected] X86_64]
Encoding settings           : cabac=1 / ref=9 / deblock=1:-3:-3 / analyse=0x3:0x133 / me=umh / subme=10 / psy=1 / fade_compensate=0.00 / psy_rd=1.00:0.00 / mixed_ref=1 / me_range=32 / chroma_me=1 / trellis=2 / 8x8dct=1 / cqm=0 / deadzone=21,11 / fast_pskip=1 / chroma_qp_offset=-2 / threads=6 / lookahead_threads=1 / sliced_threads=0 / nr=0 / decimate=1 / interlaced=0 / bluray_compat=0 / constrained_intra=0 / fgo=0 / bframes=10 / b_pyramid=2 / b_adapt=2 / b_bias=0 / direct=3 / weightb=1 / open_gop=0 / weightp=2 / keyint=250 / keyint_min=23 / scenecut=40 / intra_refresh=0 / rc=2pass / mbtree=0 / bitrate=10700 / ratetol=1.0 / qcomp=0.70 / qpmin=0:0:0 / qpmax=69:69:69 / qpstep=4 / cplxblur=20.0 / qblur=0.5 / ip_ratio=1.30 / pb_ratio=1.20 / aq=1:0.65 / aq-sensitivity=10.00 / aq-factor=1.00:1.00:1.00 / aq2=0 / aq3=0
Language                    : English
Default                     : Yes
Forced                      : No
Color range                 : Limited
Matrix coefficients         : BT.709

Audio #1
ID                          : 2
Format                      : AC-3
Format/Info                 : Audio Coding 3
Mode extension              : CM (complete main)
Format settings, Endianness : Big
Codec ID                    : A_AC3
Duration                    : 1 h 41 min
Bit rate mode               : Constant
Bit rate                    : 192 kb/s
Channel(s)                  : 2 channels
Channel positions           : Front: L R
Sampling rate               : 48.0 kHz
Frame rate                  : 31.250 FPS (1536 spf)
Compression mode            : Lossy
Stream size                 : 139 MiB (2%)
Title                       : MVO [NLO] 2.0 192 Kbps [Hurtom-omm,РОМЕО]
Language                    : Ukrainian
Default                     : Yes
Forced                      : No

Audio #2
ID                          : 3
Format                      : FLAC
Format/Info                 : Free Lossless Audio Codec
Codec ID                    : A_FLAC
Duration                    : 1 h 41 min
Bit rate mode               : Variable
Bit rate                    : 605 kb/s
Channel(s)                  : 2 channels
Channel positions           : Front: L R
Sampling rate               : 48.0 kHz
Frame rate                  : 11.719 FPS (4096 spf)
Bit depth                   : 16 bits
Stream size                 : 438 MiB (5%)
Title                       : Original, FLAC 2.0 605 Kbps
Writing library             : libFLAC 1.2.1 (UTC 2007-09-17)
Language                    : English
Default                     : No
Forced                      : No

Text #1
ID                          : 4
Format                      : UTF-8
Codec ID                    : S_TEXT/UTF8
Codec ID/Info               : UTF-8 Plain Text
Duration                    : 1 h 40 min
Bit rate                    : 96 b/s
Count of elements           : 1739
Stream size                 : 71.1 KiB (0%)
Title                       : Eng
Language                    : English
Default                     : No
Forced                      : No

Text #2
ID                          : 5
Format                      : UTF-8
Codec ID                    : S_TEXT/UTF8
Codec ID/Info               : UTF-8 Plain Text
Duration                    : 1 h 40 min
Bit rate                    : 96 b/s
Count of elements           : 1739
Stream size                 : 71.5 KiB (0%)
Title                       : Eng SDH
Language                    : English
Default                     : No
Forced                      : No

Text #3
ID                          : 6
Format                      : UTF-8
Codec ID                    : S_TEXT/UTF8
Codec ID/Info               : UTF-8 Plain Text
Duration                    : 1 h 37 min
Bit rate                    : 79 b/s
Count of elements           : 1301
Stream size                 : 56.6 KiB (0%)
Title                       : Fre
Language                    : French
Default                     : No
Forced                      : No

Text #4
ID                          : 7
Format                      : UTF-8
Codec ID                    : S_TEXT/UTF8
Codec ID/Info               : UTF-8 Plain Text
Duration                    : 1 h 37 min
Bit rate                    : 86 b/s
Count of elements           : 1301
Stream size                 : 61.4 KiB (0%)
Title                       : Ger
Language                    : German
Default                     : No
Forced                      : No

Text #5
ID                          : 8
Format                      : UTF-8
Codec ID                    : S_TEXT/UTF8
Codec ID/Info               : UTF-8 Plain Text
Duration                    : 1 h 37 min
Bit rate                    : 82 b/s
Count of elements           : 1303
Stream size                 : 58.6 KiB (0%)
Title                       : Ita
Language                    : Italian
Default                     : No
Forced                      : No

Text #6
ID                          : 9
Format                      : UTF-8
Codec ID                    : S_TEXT/UTF8
Codec ID/Info               : UTF-8 Plain Text
Duration                    : 1 h 37 min
Bit rate                    : 85 b/s
Count of elements           : 1303
Stream size                 : 61.2 KiB (0%)
Title                       : Por
Language                    : Portuguese
Default                     : No
Forced                      : No

Text #7
ID                          : 10
Format                      : UTF-8
Codec ID                    : S_TEXT/UTF8
Codec ID/Info               : UTF-8 Plain Text
Duration                    : 1 h 37 min
Bit rate                    : 86 b/s
Count of elements           : 1143
Stream size                 : 61.6 KiB (0%)
Title                       : Spa
Language                    : Spanish
Default                     : No
Forced                      : No

Menu
00:00:00.000                : en:00:00:00.000
00:08:20.333                : en:00:08:20.333
00:14:46.135                : en:00:14:46.135
00:21:21.030                : en:00:21:21.030
00:28:53.774                : en:00:28:53.774
00:40:02.609                : en:00:40:02.609
00:48:02.213                : en:00:48:02.213
00:57:42.084                : en:00:57:42.084
01:05:50.989                : en:01:05:50.989
01:18:10.519                : en:01:18:10.519
01:28:34.309                : en:01:28:34.309
01:38:01.751                : en:01:38:01.751
Оригінал <----------> Ріп







Джерела та подяки: &
Подяка РОМЕО за запис та omm за зведення української доріжки, Віктор'у за фільмографію Джона Кенді (всі - Гуртом).

ЗАЛИШАЙТЕСЬ ЯКОМОГА ДОВШЕ НА РОЗДАЧІ!
СКАЧАВ САМ - ДАЙ СКАЧАТИ ІНШИМ


Срібний реліз (на рейтинг впливає 50% завантаженого)
 Трекер:    Зареєстрований   

Завантажити / скачати фільм українською



відео для новачків



 Зареєстрований:   2016-09-15 17:58
 Розмір:   8.12 GB 
 Оцінка фільму:   3.7/10 (Голосів: 15)
   
Інші релізи
   Мільйони Брюстера / Brewster's Millions (1985) [MP4, 640x] apvAltisimo  0 / 0   647 MB   2016-03-31 14:33 
   Мільйони Брюстера / Brewster's Millions (1985) omm  4 / 0   1.37 GB   2015-01-03 20:22 
Ваш часовий пояс: GMT + 2 Години

Нова тема   Відповісти