Завантажити та скачати торренти українською


Люди Ікс: Апокаліпсис / X-Men: Apocalypse (2016) AVC Ukr/Eng | Sub Ukr/Eng

Нові коментарі

Нова тема   Відповісти
Автор Повідомлення
Anonymous 







2016-09-14 22:45  
Люди Ікс: Апокаліпсис / X-Men: Apocalypse (2016) AVC Ukr/Eng | Sub Ukr/Eng

Люди Ікс: Апокаліпсис / X-Men: Apocalypse (2016) AVC Ukr/Eng | Sub Ukr/Eng


Жанр: фантастика, пригодницький, екшн
Країна: США



Кінокомпанія: Twentieth Century Fox Film Corporation, Marvel Entertainment, TSG Entertainment, Bad Hat Harry Productions, Donners' Company, Kinberg Genre, Mel's Cite du Cinema
Режисер: Браян Сінґер / Bryan Singer
Актори: Джеймс МакЕвой, Майкл Фассбендер, Дженніфер Лоуренс, Ніколас Голт, Олівія Манн, Софі Тернер, Оскар Айзек, Роуз Бірн, Еван Пітерс, Тай Шерідан

Сюжет:
Цього разу загону молодих мутантів належить битися з новим, більш сильним суперником, який називає себе Апокаліпсисом. Це перший мутант, що володіє колосальною силою і якому поклонялися в стародавньому Єгипті. Прокинувшись після тисячолітнього сну, безсмертний Апокаліпсис розчаровується в новому світі і вирішує його змінити. В якості помічників він обирає чотирьох мутантів, завдання яких перетворити наш світ на руїни. Однак Чарльз Ксавьє не може допустити, щоб подібне трапилося, навіть не дивлячись на ставлення звичайних людей до таких, як він.


Тривалість: 02:23:56
Якість: AVC
Відео:
кодек:
розмір кадру: 1024 х 426
бітрейт: 2019 Кбіт/с

Аудіо # 1:
мова: українська
переклад: професійний дубльований
кодек: 5.1
бітрейт: 448 Кбіт/с

Аудіо # 2:
мова: англійська
переклад: оригінал
кодек: 5.1
бітрейт: 448 Кбіт/с

Субтитри # 1-2:
мова: українська (форсовані, повні)
тип: програмні (м'які)
формат: *.srt

Субтитри # 3-4:
мова: англійська (форсовані, повні)
тип: програмні (м'які)
формат: *.srt

Збережено оригінальні розділи, як на Blu-ray.
MediaInfo
Код:
Complete name               : X-Men Apocalypse (2016) [Ukr,Eng sub.Ukr,Eng] AVC [Hurtom].mkv
Format                      : Matroska
Format version              : Version 4 / Version 2
File size                   : 2.93 GiB
Duration                    : 2 h 23 min
Overall bit rate            : 2 918 kb/s
Movie name                  : Люди Ікс: Апокаліпсис / X-Men: Apocalypse (2016) [Ukr,Eng sub.Ukr,Eng] AVC [Hurtom] by igor911
Writing library             : libebml v1.3.4 + libmatroska v1.4.5
Cover                       : Yes
Attachments                 : cover.jpg / small_cover_land.jpg / small_cover.jpg / cover_land.jpg

Video
ID                          : 1
Format                      : AVC
Format/Info                 : Advanced Video Codec
Format profile              : [email protected]
Format settings, CABAC      : Yes
Format settings, ReFrames   : 11 frames
Codec ID                    : V_MPEG4/ISO/AVC
Duration                    : 2 h 23 min
Bit rate                    : 2 019 kb/s
Width                       : 1 024 pixels
Height                      : 426 pixels
Display aspect ratio        : 2.40:1
Frame rate mode             : Constant
Frame rate                  : 23.976 (23976/1000) FPS
Color space                 : YUV
Chroma subsampling          : 4:2:0
Bit depth                   : 8 bits
Scan type                   : Progressive
Bits/(Pixel*Frame)          : 0.193
Stream size                 : 2.03 GiB (69%)
Title                       : Люди Ікс: Апокаліпсис / X-Men: Apocalypse (2016) AVC [ExKinoRay]
Writing library             : core 144 r2525 40bb568
Encoding settings           : cabac=1 / ref=11 / deblock=1:-3:-3 / analyse=0x3:0x113 / me=umh / subme=10 / psy=1 / psy_rd=1.05:0.15 / mixed_ref=1 / me_range=32 / chroma_me=1 / trellis=2 / 8x8dct=1 / cqm=0 / deadzone=21,11 / fast_pskip=0 / chroma_qp_offset=-3 / threads=12 / lookahead_threads=3 / sliced_threads=0 / nr=0 / decimate=0 / interlaced=0 / bluray_compat=0 / constrained_intra=0 / bframes=11 / b_pyramid=2 / b_adapt=2 / b_bias=0 / direct=3 / weightb=1 / open_gop=0 / weightp=2 / keyint=240 / keyint_min=23 / scenecut=40 / intra_refresh=0 / rc_lookahead=40 / rc=2pass / mbtree=0 / bitrate=2019 / ratetol=1.0 / qcomp=0.60 / qpmin=0 / qpmax=51 / qpstep=4 / cplxblur=20.0 / qblur=0.5 / vbv_maxrate=50000 / vbv_bufsize=62500 / nal_hrd=none / filler=0 / ip_ratio=1.40 / pb_ratio=1.30 / aq=1:0.80
Language                    : English
Default                     : Yes
Forced                      : No
Color range                 : Limited
Color primaries             : BT.709
Transfer characteristics    : BT.709
Matrix coefficients         : BT.709

Audio #1
ID                          : 2
Format                      : AC-3
Format/Info                 : Audio Coding 3
Mode extension              : CM (complete main)
Format settings, Endianness : Big
Codec ID                    : A_AC3
Duration                    : 2 h 23 min
Bit rate mode               : Constant
Bit rate                    : 448 kb/s
Channel(s)                  : 6 channels
Channel positions           : Front: L C R, Side: L R, LFE
Sampling rate               : 48.0 kHz
Frame rate                  : 31.250 FPS (1536 spf)
Compression mode            : Lossy
Stream size                 : 461 MiB (15%)
Title                       : Dub [Blu-ray EUR] 5.1 448 Kbps
Language                    : Ukrainian
Default                     : Yes
Forced                      : No

Audio #2
ID                          : 3
Format                      : AC-3
Format/Info                 : Audio Coding 3
Mode extension              : CM (complete main)
Format settings, Endianness : Big
Codec ID                    : A_AC3
Duration                    : 2 h 23 min
Bit rate mode               : Constant
Bit rate                    : 448 kb/s
Channel(s)                  : 6 channels
Channel positions           : Front: L C R, Side: L R, LFE
Sampling rate               : 48.0 kHz
Frame rate                  : 31.250 FPS (1536 spf)
Compression mode            : Lossy
Stream size                 : 461 MiB (15%)
Title                       : Original, 5.1 448 Kbps
Language                    : English
Default                     : No
Forced                      : No

Text #1
ID                          : 4
Format                      : UTF-8
Codec ID                    : S_TEXT/UTF8
Codec ID/Info               : UTF-8 Plain Text
Duration                    : 2 h 20 min
Bit rate                    : 2 b/s
Count of elements           : 98
Stream size                 : 2.70 KiB (0%)
Title                       : Ukr Forced [Blu-ray EUR] [Hurtom-igor911]
Language                    : Ukrainian
Default                     : Yes
Forced                      : Yes

Text #2
ID                          : 5
Format                      : UTF-8
Codec ID                    : S_TEXT/UTF8
Codec ID/Info               : UTF-8 Plain Text
Duration                    : 2 h 22 min
Bit rate                    : 49 b/s
Count of elements           : 1463
Stream size                 : 51.4 KiB (0%)
Title                       : Ukr full [Blu-ray EUR] [Hurtom-igor911]
Language                    : Ukrainian
Default                     : No
Forced                      : No

Text #3
ID                          : 6
Format                      : UTF-8
Codec ID                    : S_TEXT/UTF8
Codec ID/Info               : UTF-8 Plain Text
Duration                    : 1 h 26 min
Bit rate                    : 3 b/s
Count of elements           : 97
Stream size                 : 1.93 KiB (0%)
Title                       : Eng Forced
Language                    : English
Default                     : No
Forced                      : No

Text #4
ID                          : 7
Format                      : UTF-8
Codec ID                    : S_TEXT/UTF8
Codec ID/Info               : UTF-8 Plain Text
Duration                    : 2 h 12 min
Bit rate                    : 38 b/s
Count of elements           : 1458
Stream size                 : 37.6 KiB (0%)
Title                       : Eng full
Language                    : English
Default                     : No
Forced                      : No

Menu
00:00:00.000                : en:00:00:00.000
00:08:18.790                : en:00:08:18.790
00:14:13.186                : en:00:14:13.186
00:18:07.086                : en:00:18:07.086
00:24:55.494                : en:00:24:55.494
00:30:45.343                : en:00:30:45.343
00:36:35.235                : en:00:36:35.235
00:41:00.083                : en:00:41:00.083
00:45:56.504                : en:00:45:56.504
00:49:24.295                : en:00:49:24.295
00:55:22.611                : en:00:55:22.611
00:59:36.823                : en:00:59:36.823
01:04:43.671                : en:01:04:43.671
01:12:35.851                : en:01:12:35.851
01:17:32.898                : en:01:17:32.898
01:22:18.517                : en:01:22:18.517
01:27:45.594                : en:01:27:45.594
01:34:05.807                : en:01:34:05.807
01:36:46.634                : en:01:36:46.634
01:39:50.902                : en:01:39:50.902
01:43:34.375                : en:01:43:34.375
01:49:57.382                : en:01:49:57.382
01:55:08.360                : en:01:55:08.360
01:57:21.660                : en:01:57:21.660
02:03:50.548                : en:02:03:50.548
02:07:56.711                : en:02:07:56.711
02:10:59.101                : en:02:10:59.101
02:12:54.091                : en:02:12:54.091


Джерело: &
Витягнення з блурей диска та розпізнавання українських субтитрів - igor911


 Трекер:    Зареєстрований   

Завантажити / скачати фільм українською



відео для новачків



 Зареєстрований:   2016-09-14 22:45
 Розмір:   2.93 GB 
 Оцінка фільму:   6.4/10 (Голосів: 30)
   
eXteSy- 
VIP


З нами з: 06.04.09
Востаннє: 04.12.16
Повідомлень: 1453

2016-10-01 22:22  
Перша третина даної стрічки видалася цікавої, а от далі... Як на мене, перестаралися з масштабністю і глобальністю настільки, що це нормально сприймалося і дивитися було навіть нудно. Але принаймні тут не було таких забавок в психологізм, як у попередній частині.
6,5/10

bot 
робот


З нами з: 30.09.07
Востаннє: 26.05.05
Повідомлень: 15983

2016-11-02 17:51  
Тему перенесено з Фільми до форуму Архів відео

Причина перенесення: http://toloka.to/t34281
taraskill1

bot 
робот


З нами з: 30.09.07
Востаннє: 26.05.05
Повідомлень: 15983

2016-11-04 09:31  
Тему перенесено з Архів відео до форуму Фільми

Причина перенесення: Не підпадає під дію п.6 розділу "Перенесення в Архів": різниця розміру кадру більше 20 пікселів (п.2 Повторів), різниця бітрейту більше 300 кб/с (п.1 Повторів) Також тут присутні укр.форсовані субтитри, без яких втрачається зміст багатьох епізодів.
igor911

Ваш часовий пояс: GMT + 2 Години

Нова тема   Відповісти