Завантажити та скачати торренти українською


Люди Ікс: Апокаліпсис / X-Men: Apocalypse (2016) Remux 1080p Ukr/Eng | Sub Ukr/Eng

Нові коментарі

Нова тема   Відповісти
Автор Повідомлення
Anonymous 







2016-09-14 20:53  
Люди Ікс: Апокаліпсис / X-Men: Apocalypse (2016) Remux Ukr/Eng | Sub Ukr/Eng

Люди Ікс: Апокаліпсис / X-Men: Apocalypse (2016) Remux 1080p Ukr/Eng | Sub Ukr/Eng


Жанр: фантастика, пригодницький, екшн
Країна: США



Кінокомпанія: Twentieth Century Fox Film Corporation, Marvel Entertainment, TSG Entertainment, Bad Hat Harry Productions, Donners' Company, Kinberg Genre, Mel's Cite du Cinema
Режисер: Браян Сінґер / Bryan Singer
Актори: Джеймс МакЕвой, Майкл Фассбендер, Дженніфер Лоуренс, Ніколас Голт, Олівія Манн, Софі Тернер, Оскар Айзек, Роуз Бірн, Еван Пітерс, Тай Шерідан

Сюжет:
Цього разу загону молодих мутантів належить битися з новим, більш сильним суперником, який називає себе Апокаліпсисом. Це перший мутант, що володіє колосальною силою і якому поклонялися в стародавньому Єгипті. Прокинувшись після тисячолітнього сну, безсмертний Апокаліпсис розчаровується в новому світі і вирішує його змінити. В якості помічників він обирає чотирьох мутантів, завдання яких перетворити наш світ на руїни. Однак Чарльз Ксавьє не може допустити, щоб подібне трапилося, навіть не дивлячись на ставлення звичайних людей до таких, як він.


Тривалість: 02:23:56
Якість: Remux [Blu-Ray EUR]
Відео:
кодек:
розмір кадру: 1920 х 1080
бітрейт: 23,4 Мбіт/с

Аудіо # 1:
мова: українська
переклад: професійний дубльований
кодек: 5.1
бітрейт: 448 Кбіт/с

Аудіо # 2:
мова: англійська
переклад: оригінал
кодек: -HD MA 7.1
бітрейт: 5216 Кбіт/с

Аудіо # 3:
мова: англійська
переклад: коментарі Браяна Сінґера та Саймона Кінберга
кодек: 2.0
бітрейт: 224 Кбіт/с

Субтитри # 1-2:
мова: українська (форсовані, повні)
тип: програмні (м'які)
формат: *.srt

Субтитри # 3:
мова: українська
тип: пререндерні
формат: PGS

Субтитри # 4-5:
мова: англійська (форсовані, повні)
тип: пререндерні
формат: PGS

Збережено оригінальні розділи, як на Blu-ray.
MediaInfo
Код:
Complete name               : X-Men Apocalypse (2016) [Ukr,Eng sub.Ukr,Eng] Remux 1080p [Hurtom].mkv
Format                      : Matroska
Format version              : Version 4 / Version 2
File size                   : 29.5 GiB
Duration                    : 2 h 23 min
Overall bit rate mode       : Variable
Overall bit rate            : 29.3 Mb/s
Movie name                  : Люди Ікс: Апокаліпсис / X-Men: Apocalypse (2016) [Ukr,Eng sub.Ukr,Eng] Remux 1080p [Hurtom] by igor911
Encoded date                : UTC 2016-09-14 17:32:52
Writing application         : mkvmerge v9.4.2 ('So High') 64bit
Writing library             : libebml v1.3.4 + libmatroska v1.4.5
Cover                       : Yes
Attachments                 : cover_land.jpg / small_cover.jpg / small_cover_land.jpg / cover.jpg

Video
ID                          : 1
Format                      : AVC
Format/Info                 : Advanced Video Codec
Format profile              : [email protected]
Format settings, CABAC      : Yes
Format settings, ReFrames   : 4 frames
Codec ID                    : V_MPEG4/ISO/AVC
Duration                    : 2 h 23 min
Bit rate mode               : Variable
Bit rate                    : 23.4 Mb/s
Maximum bit rate            : 34.0 Mb/s
Width                       : 1 920 pixels
Height                      : 1 080 pixels
Display aspect ratio        : 16:9
Frame rate mode             : Constant
Frame rate                  : 23.976 (24000/1001) FPS
Color space                 : YUV
Chroma subsampling          : 4:2:0
Bit depth                   : 8 bits
Scan type                   : Progressive
Bits/(Pixel*Frame)          : 0.471
Stream size                 : 23.5 GiB (80%)
Title                       : Люди Ікс: Апокаліпсис / X-Men: Apocalypse (2016) Blu-ray EUR 1080p [HDClub]
Language                    : English
Default                     : Yes
Forced                      : No

Audio #1
ID                          : 2
Format                      : AC-3
Format/Info                 : Audio Coding 3
Mode extension              : CM (complete main)
Format settings, Endianness : Big
Codec ID                    : A_AC3
Duration                    : 2 h 23 min
Bit rate mode               : Constant
Bit rate                    : 448 kb/s
Channel(s)                  : 6 channels
Channel positions           : Front: L C R, Side: L R, LFE
Sampling rate               : 48.0 kHz
Frame rate                  : 31.250 FPS (1536 spf)
Compression mode            : Lossy
Stream size                 : 461 MiB (2%)
Title                       : Dub [Blu-ray EUR] 5.1 448 Kbps
Language                    : Ukrainian
Default                     : Yes
Forced                      : No

Audio #2
ID                          : 3
Format                      :
Format/Info                 : Digital Theater Systems
Format profile              : MA / ES Matrix / Core
Mode                        : 16
Format settings, Endianness : Big
Codec ID                    : A_DTS
Duration                    : 2 h 23 min
Bit rate mode               : Variable / Constant / Constant
Bit rate                    : 5 216 kb/s / 1 509 kb/s / 1 509 kb/s
Channel(s)                  : 8 channels / 7 channels / 6 channels
Channel positions           : Front: L C R, Side: L R, Back: L R, LFE / Front: L C R, Side: L R, Back: C, LFE / Front: L C R, Side: L R, LFE
Sampling rate               : 48.0 kHz
Frame rate                  : 93.750 FPS (512 spf)
Bit depth                   : 24 bits
Compression mode            : Lossless / Lossy / Lossy
Stream size                 : 5.24 GiB (18%)
Title                       : Original, -HD MA 7.1 5216 Kbit/s
Language                    : English
Default                     : No
Forced                      : No

Audio #3
ID                          : 4
Format                      : AC-3
Format/Info                 : Audio Coding 3
Mode extension              : CM (complete main)
Format settings, Endianness : Big
Codec ID                    : A_AC3
Duration                    : 2 h 23 min
Bit rate mode               : Constant
Bit rate                    : 224 kb/s
Channel(s)                  : 2 channels
Channel positions           : Front: L R
Sampling rate               : 48.0 kHz
Frame rate                  : 31.250 FPS (1536 spf)
Compression mode            : Lossy
Stream size                 : 231 MiB (1%)
Title                       : Commentary by Bryan Singer and Simon Kinberg
Language                    : English
Default                     : No
Forced                      : No

Text #1
ID                          : 5
Format                      : UTF-8
Codec ID                    : S_TEXT/UTF8
Codec ID/Info               : UTF-8 Plain Text
Duration                    : 2 h 20 min
Bit rate                    : 2 b/s
Count of elements           : 98
Stream size                 : 2.70 KiB (0%)
Title                       : Ukr Forced (SRT, UTF-8) [Blu-ray EUR] [Hurtom-igor911]
Language                    : Ukrainian
Default                     : Yes
Forced                      : No

Text #2
ID                          : 6
Format                      : UTF-8
Codec ID                    : S_TEXT/UTF8
Codec ID/Info               : UTF-8 Plain Text
Duration                    : 2 h 22 min
Bit rate                    : 49 b/s
Count of elements           : 1463
Stream size                 : 51.4 KiB (0%)
Title                       : Ukr Full (SRT, UTF-8) [Blu-ray EUR] [Hurtom-igor911]
Language                    : Ukrainian
Default                     : No
Forced                      : No

Text #3
ID                          : 7
Format                      : PGS
Muxing mode                 : zlib
Codec ID                    : S_HDMV/PGS
Codec ID/Info               : Picture based subtitle format used on BDs/HD-DVDs
Duration                    : 2 h 22 min
Bit rate                    : 7 145 b/s
Count of elements           : 2954
Stream size                 : 7.30 MiB (0%)
Title                       : Ukr Full/Forced (PGS)
Language                    : Ukrainian
Default                     : No
Forced                      : No

Text #4
ID                          : 8
Format                      : PGS
Muxing mode                 : zlib
Codec ID                    : S_HDMV/PGS
Codec ID/Info               : Picture based subtitle format used on BDs/HD-DVDs
Duration                    : 1 h 26 min
Bit rate                    : 695 b/s
Count of elements           : 186
Stream size                 : 441 KiB (0%)
Title                       : Eng Forced (PGS)
Language                    : English
Default                     : No
Forced                      : No

Text #5
ID                          : 9
Format                      : PGS
Muxing mode                 : zlib
Codec ID                    : S_HDMV/PGS
Codec ID/Info               : Picture based subtitle format used on BDs/HD-DVDs
Duration                    : 2 h 12 min
Bit rate                    : 7 980 b/s
Count of elements           : 2916
Stream size                 : 7.55 MiB (0%)
Title                       : Eng Full (PGS)
Language                    : English
Default                     : No
Forced                      : No

Menu
00:00:00.000                : en:00:00:00.000
00:08:18.790                : en:00:08:18.790
00:14:13.186                : en:00:14:13.186
00:18:07.086                : en:00:18:07.086
00:24:55.494                : en:00:24:55.494
00:30:45.343                : en:00:30:45.343
00:36:35.235                : en:00:36:35.235
00:41:00.083                : en:00:41:00.083
00:45:56.504                : en:00:45:56.504
00:49:24.295                : en:00:49:24.295
00:55:22.611                : en:00:55:22.611
00:59:36.823                : en:00:59:36.823
01:04:43.671                : en:01:04:43.671
01:12:35.851                : en:01:12:35.851
01:17:32.898                : en:01:17:32.898
01:22:18.517                : en:01:22:18.517
01:27:45.594                : en:01:27:45.594
01:34:05.807                : en:01:34:05.807
01:36:46.634                : en:01:36:46.634
01:39:50.902                : en:01:39:50.902
01:43:34.375                : en:01:43:34.375
01:49:57.382                : en:01:49:57.382
01:55:08.360                : en:01:55:08.360
01:57:21.660                : en:01:57:21.660
02:03:50.548                : en:02:03:50.548
02:07:56.711                : en:02:07:56.711
02:10:59.101                : en:02:10:59.101
02:12:54.091                : en:02:12:54.091


Джерело: &


Золотий реліз (завантажене не впливає на рейтинг)
 Трекер:    Зареєстрований   

Завантажити / скачати фільм українською



відео для новачків



 Зареєстрований:   2016-09-14 20:53
 Розмір:   29.49 GB 
 Оцінка фільму:   4.5/10 (Голосів: 18)
   
Anonymous 







2016-09-14 21:17  
Файл в себе видалю за два тижні.
sa44ik 
Новенький


З нами з: 13.09.13
Востаннє: 04.12.16
Повідомлень: 1

2016-09-14 21:28  
те що треба!
GoDLiKeR20 
Новенький


З нами з: 21.06.13
Востаннє: 08.12.16
Повідомлень: 9

2016-09-22 19:25  
+ Мільярд спецефектів, екшена та пригод
+ Епічний акторський склад
- банальний антагоніст

A1B1C1 
Новенький


З нами з: 19.02.12
Востаннє: 06.12.16
Повідомлень: 2

2016-10-04 19:45  
Програвач вперто не хоче програвати файл... хоча всі решта файли з кодеком програє без проблем, чи у всіх така проблема?
Anonymous 







2016-10-04 19:55  
A1B1C1 з решти 65 користувачів ніхто не скаржився. Спробуй якийсь легший реліз (ріп)
A1B1C1 
Новенький


З нами з: 19.02.12
Востаннє: 06.12.16
Повідомлень: 2

2016-10-04 20:42  
Пробував, всі решта релізи програє без проблем, плюс інші "важкі" файли, лише на цьому файлі "закашляв"...
Anonymous 







2016-10-04 22:10  
A1B1C1, перевірив файл mkvalidator'ом - помилок немає.
Ваш часовий пояс: GMT + 2 Години

Нова тема   Відповісти