Завантажити та скачати торренти українською


Люди Ікс: Апокаліпсис / X-Men: Apocalypse (2016) 720p-mini

Нові коментарі

Нова тема   Відповісти
Автор Повідомлення
Drool 
VIP


З нами з: 17.04.10
Востаннє: 03.12.16
Повідомлень: 1262

2016-09-13 07:25  
Люди Ікс: Апокаліпсис / X-Men: Apocalypse (2016) 720p-mini

Жанр: фантастика, пригодницький, екшн
Країна: США



Кінокомпанія: Twentieth Century Fox Film Corporation, Marvel Entertainment, TSG Entertainment, Bad Hat Harry Productions, Donners' Company, Kinberg Genre, Mel's Cite du Cinema
Режисер: Браян Сінґер
Актори: Джеймс МакЕвой, Майкл Фассбендер, Дженніфер Лоуренс, Ніколас Голт, Олівія Манн, Софі Тернер, Оскар Айзек, Роуз Бірн, Еван Пітерс, Тай Шерідан

Сюжет:
Цього разу загону молодих мутантів належить битися з новим, більш сильним суперником, який називає себе Апокаліпсисом. Це перший мутант, що володіє колосальною силою і якому поклонялися в стародавньому Єгипті. Прокинувшись після тисячолітнього сну, безсмертний Апокаліпсис розчаровується в новому світі і вирішує його змінити. В якості помічників він обирає чотирьох мутантів, завдання яких перетворити наш світ на руїни. Однак Чарльз Ксавьє не може допустити, щоб подібне трапилося, навіть не дивлячись на ставлення звичайних людей до таких, як він.


Тривалість: 02:23:57
Якість: 720p-mini
Відео:
кодек:
розмір кадру: 1280 х 534
бітрейт: 2603 кб/с

Аудіо:
мова: українська
переклад: професійний дубльований
кодек: 5.1
бітрейт: 448 кб/с

Субтитри:
мова: українські (форсовані на діалоги староєгипетською, німецькою, польською мовами) | igor911
тип: програмні (м'які)
формат: *.srt
MediaInfo
General
Unique ID : 299276067131279085650861378177444268457 (0xE1267953A690774944F0FAA959DEC9A9)
Complete name : /mnt/disk_d/Video/X-Men.Apocalypse.2016.Ukr.Dub..720p-mini.UAGet.mkv
Format : Matroska
Format version : Version 4 / Version 2
File size : 3.07 GiB
Duration : 2h 23mn
Overall bit rate : 3 053 Kbps
Movie name : Люди Ікс: Апокаліпсис / X-Men: Apocalypse (2016) 720p-mini -=UAGet=-
Encoded date : UTC 2016-09-15 06:03:39
Writing application : mkvmerge v9.2.0 ('Photograph') 64bit
Writing library : libebml v1.3.3 + libmatroska v1.4.4
Attachements : X-Men_Apocalypse_2016_550px.jpg
TITLE : Люди Ікс: Апокаліпсис / X-Men: Apocalypse (2016) 720p-mini -=UAGet=-
ARTIST : Джеймс МакЕвой, Майкл Фассбендер, Дженніфер Лоуренс, Ніколас Голт, Олівія Манн..
DIRECTOR : Браян Сінґер
DATE_RELEASED : 2016
GENRE : фантастика, пригодницький, екшн
SYNOPSIS : Цього разу загону молодих мутантів належить битися з новим, більш сильним суперником, який називає себе Апокаліпсисом. Це перший мутант, що володіє колосальною силою і якому поклонялися в стародавньому Єгипті. Прокинувшись після тисячолітнього сну, безсмертний Апокаліпсис розчаровується в новому світі і вирішує його змінити. В якості помічників він обирає чотирьох мутантів, завдання яких перетворити наш світ на руїни. Однак Чарльз Ксавьє не може допустити, щоб подібне трапилося, навіть не дивлячись на ставлення звичайних людей до таких, як він.
DURATION : 02:23:56.320000000
NUMBER_OF_FRAMES : 269885
NUMBER_OF_BYTES : 483633920
_STATISTICS_WRITING_APP : mkvmerge v9.2.0 ('Photograph') 64bit
_STATISTICS_WRITING_DATE_UTC : 2016-09-15 06:03:39
_STATISTICS_TAGS : BPS DURATION NUMBER_OF_FRAMES NUMBER_OF_BYTES

Video
ID : 1
Format : AVC
Format/Info : Advanced Video Codec
Format profile : [email protected]
Format settings, CABAC : Yes
Format settings, ReFrames : 11 frames
Codec ID : V_MPEG4/ISO/AVC
Duration : 2h 23mn
Bit rate : 2 603 Kbps
Width : 1 280 pixels
Height : 534 pixels
Display aspect ratio : 2.40:1
Frame rate mode : Constant
Frame rate : 23.976 fps
Color space : YUV
Chroma subsampling : 4:2:0
Bit depth : 8 bits
Scan type : Progressive
Bits/(Pixel*Frame) : 0.159
Stream size : 2.56 GiB (83%)
Title : Люди Ікс: Апокаліпсис / X-Men: Apocalypse (2016) 720p-mini -=UAGet=-
Writing library : core 142 r2389 956c8d8
Encoding settings : cabac=1 / ref=12 / deblock=1:-2:-1 / analyse=0x3:0x133 / me=umh / subme=11 / psy=1 / psy_rd=1,10:0,10 / mixed_ref=1 / me_range=64 / chroma_me=1 / trellis=2 / 8x8dct=1 / cqm=0 / deadzone=21,11 / fast_pskip=0 / chroma_qp_offset=-3 / threads=6 / lookahead_threads=1 / sliced_threads=0 / nr=0 / decimate=1 / interlaced=0 / bluray_compat=0 / constrained_intra=0 / bframes=12 / b_pyramid=1 / b_adapt=2 / b_bias=0 / direct=3 / weightb=1 / open_gop=0 / weightp=2 / keyint=240 / keyint_min=24 / scenecut=40 / intra_refresh=0 / rc=2pass / mbtree=0 / bitrate=2603 / ratetol=1,0 / qcomp=1,00 / qpmin=0 / qpmax=69 / qpstep=4 / cplxblur=20,0 / qblur=0,5 / ip_ratio=1,40 / pb_ratio=1,30 / aq=2:0,60
Default : Yes
Forced : Yes
Color range : Limited
Color primaries : BT.709
Transfer characteristics : BT.709
Matrix coefficients : BT.709

Audio
ID : 2
Format : AC-3
Format/Info : Audio Coding 3
Mode extension : CM (complete main)
Format settings, Endianness : Big
Codec ID : A_AC3
Duration : 2h 23mn
Bit rate mode : Constant
Bit rate : 448 Kbps
Channel(s) : 6 channels
Channel positions : Front: L C R, Side: L R, LFE
Sampling rate : 48.0 KHz
Compression mode : Lossy
Stream size : 461 MiB (15%)
Title : Рідна мова | 5.1, 448 kbps, 48 kHz
Language : Ukrainian
Default : Yes
Forced : Yes

Text
ID : 3
Format : UTF-8
Codec ID : S_TEXT/UTF8
Codec ID/Info : UTF-8 Plain Text
Title : Українські (форсовані) by igor911
Language : Ukrainian
Default : Yes
Forced : Yes
Скріншоти





Реліз від:
Особиста оцінка: 9 - давно не бачив настільки якісне кіно


 Трекер:    Зареєстрований   

Завантажити / скачати фільм українською



відео для новачків



 Зареєстрований:   2016-09-15 08:19
 Розмір:   3.07 GB 
 Оцінка фільму:   9.1/10 (Голосів: 17)
   
bot 
робот


З нами з: 30.09.07
Востаннє: 26.05.05
Повідомлень: 15983

2016-09-13 07:26  
Тему перенесено з Фільми в HD до форуму Анонси релізів


Drool

Drool 
VIP


З нами з: 17.04.10
Востаннє: 03.12.16
Повідомлень: 1262

2016-09-13 07:26  
Як тільки з'явиться ліцензійний звук. Орієнтовний розмір 2,9 гектари.
НТН 
Відео Гуртом - фільмокрай
Відео Гуртом - фільмокрай


З нами з: 25.12.11
Востаннє: 10.11.16
Повідомлень: 2001

2016-09-13 08:31  
ох краса Вже хочу в свою колекцію Марвелівського кіно
Drool 
VIP


З нами з: 17.04.10
Востаннє: 03.12.16
Повідомлень: 1262

2016-09-13 08:42  
Remux я вже маю, зараз буду кодувати відеоряд, завтра-післязавтра міг би викласти з наявним на сьогодні LINE, але не хочеться потім знову перезаливати, розпорошувати користувачів.
ZyMe 
Новенький


З нами з: 24.10.10
Востаннє: 14.09.16
Повідомлень: 1

2016-09-14 14:44  
Дякую, фільм непоганий)
bot 
робот


З нами з: 30.09.07
Востаннє: 26.05.05
Повідомлень: 15983

2016-09-15 08:19  
Тему перенесено з Анонси релізів до форуму Фільми в HD


Drool

sdserg1981 
Новенький


З нами з: 24.03.15
Востаннє: 01.12.16
Повідомлень: 1

2016-11-19 19:28  
Один раз подивитись можна, коли вони не в супергеройських костюмах навіть серйозно і драматично сприймаються, але як тільки перевдягаються у спорядження і розмальовуються, одразу втрачається відчуття фільму. Найцікавіший момент про швидкуна.
Ваш часовий пояс: GMT + 2 Години

Нова тема   Відповісти