Завантажити та скачати торренти українською


VA - Кобзарський цех. Кто кріпко на Бога уповая... Псальми та канти (2003) [FLAC] | Ethno

Нові коментарі

Нова тема   Відповісти
Автор Повідомлення
kolpavel 
VIP


З нами з: 04.05.14
Востаннє: 05.12.16
Повідомлень: 1059

2016-09-12 18:39  
VA - Кобзарський цех. Кто кріпко на Бога уповая... Псальми та канти (2003) [FLAC] | Ethno

VA - Кобзарський цех. Кто кріпко на Бога уповая... Псальми та канти (2003) [FLAC] | Ethno


Стиль: Instrumental Ethno
Країна, місто: Україна
Видавець: Оберіг XXI (16-О-030-2)
Пісні:
    01. Христу на кресті (В. Кушпет, кобза) - 03:16
    02. Нема в світі правди (М. Хай, ліра) - 05:24
    03. Святому Георгію (М. Товкайло, бандура) - 03:16
    04. Ой, горе, горе… (А. Білоус, кобза) - 03:48
    05. Про потоп (Е. Драч, кобза) - 05:33
    06. Ой по-під мостом, мостом… (В. Шевчук, ліра) - 03:22
    07. Про страшний суд (М. Будник, бандура) - 03:51
    08. Кто кріпко на Бога уповая… (Т. Компаніченко) - 03:02
    09. Земля плачеться (К. Черемський, бандура) - 03:03
    10. Про Почаївську Божу Матір (О. Санін, ліра) - 07.29
    11. Ісусе Прекрасний (Т. Компаніченко, бандура) - 05:29
    12. Блажен той муж (Е. Драч, кобза) - 03:16
    13. Страстям Христовим (К. Черемський, бандура) - 03:19
    14. Про грішні душі (М. Коваль, бандура) - 05:25
    15. Про славу і багатство (Е. Драч, кобза) - 02:14
    16. Всякому городу нрав і права (Т. Компаніченко, бандура) - 04:20

Тривалість: 01:06:37
Мова: українська
Аудіо-кодек: FLAC
Бітрейт: 630-915 кб/с
Джерело: трекер
Додаткова інформація:
EAC
Exact Audio Copy V0.99 prebeta 4 from 23. January 2008

Отчёт EAC об извлечении, выполненном 10. октября 2008, 19:12

Various / That who mighty relies upon God...

Дисковод: Optiarc DVD RW AD-7530A Adapter: 1 ID: 1

Режим чтения : Достоверность
Использование точного потока : Да
Отключение кэша аудио : Да
Использование указателей C2 : Нет

Коррекция смещения при чтении : 6
Способность читать области Lead-in и Lead-out : Нет
Заполнение пропущенных сэмплов тишиной : Да
Удаление блоков с тишиной в начале и конце : Нет
При вычислениях CRC использовались нулевые сэмплы : Да
Интерфейс : Встроенный Win32-интерфейс для Win NT/2000

Выходной формат : Внутренние WAV-операции
Формат сэмплов : 44.100 Гц; 16 бит; стерео

TOC извлечённого CD

Трек | Старт | Длительность | Начальный сектор | Конечный сектор
---------------------------------------------------------------------
1 | 0:00.00 | 3:17.59 | 0 | 14833
2 | 3:17.59 | 5:25.42 | 14834 | 39250
3 | 8:43.26 | 3:18.24 | 39251 | 54124
4 | 12:01.50 | 3:49.66 | 54125 | 71365
5 | 15:51.41 | 5:34.48 | 71366 | 96463
6 | 21:26.14 | 3:24.07 | 96464 | 111770
7 | 24:50.21 | 3:53.31 | 111771 | 129276
8 | 28:43.52 | 3:04.31 | 129277 | 143107
9 | 31:48.08 | 3:04.67 | 143108 | 156974
10 | 34:53.00 | 7:31.20 | 156975 | 190819
11 | 42:24.20 | 5:30.42 | 190820 | 215611
12 | 47:54.62 | 3:17.36 | 215612 | 230422
13 | 51:12.23 | 3:21.21 | 230423 | 245518
14 | 54:33.44 | 5:26.52 | 245519 | 270020
15 | 60:00.21 | 2:16.33 | 270021 | 280253
16 | 62:16.54 | 4:20.03 | 280254 | 299756

Характеристики диапазона извлечения и сообщения об ошибках

Выбранный диапазон

Имя файла D:\Downloads\Various - That who mighty relies upon God....wav

Пиковый уровень 99.9 %
Качество диапазона 99.9 %
CRC копии 2D51A49B
Копирование... OK

Ошибок не произошло

Конец отчёта


Якщо Ви справді бажаєте підтримати українське - після прослуховування, якщо музика вам сподобалась, придбайте ліцензійний диск. Підтримаймо вітчизняних виконавців!


Срібний реліз (на рейтинг впливає 50% завантаженого)
 Трекер:    Зареєстрований   

Завантажити / скачати українську музику



відео для новачків



 Зареєстрований:   2016-09-12 19:11
 Розмір:   381 MB 
 Оцінка музики:   10/10 (Голосів: 2)
   
kolpavel 
VIP


З нами з: 04.05.14
Востаннє: 05.12.16
Повідомлень: 1059

2016-09-12 18:42  
MP3 тут - http://toloka.to/t22877
Ваш часовий пояс: GMT + 2 Години

Нова тема   Відповісти