Завантажити та скачати торренти українською


Люди Ікс: Апокаліпсис / X-Men: Apocalypse (2016) 1080p 3D [HalfOverUnder] Ukr/Eng | Sub Ukr/Eng

Нові коментарі

Нова тема   Відповісти
Автор Повідомлення
-VipeR- 
VIP


З нами з: 17.07.08
Востаннє: 05.12.16
Повідомлень: 275

2016-09-11 14:37  
Люди Ікс: Апокаліпсис / X-Men: Apocalypse (2016) 1080p 3D [HalfOverUnder] Ukr/Eng | Sub Ukr/Eng

Люди Ікс: Апокаліпсис / X-Men: Apocalypse (2016) 1080p 3D [HalfOverUnder] Ukr/Eng | Sub Ukr/Eng


Жанр: фантастика, пригодницький, екшн
Країна: США



Кінокомпанія: Twentieth Century Fox Film Corporation, Marvel Entertainment, TSG Entertainment, Bad Hat Harry Productions, Donners' Company, Kinberg Genre, Mel's Cite du Cinema
Режисер: Браян Сінґер
Актори: Джеймс МакЕвой, Майкл Фассбендер, Дженніфер Лоуренс, Ніколас Голт, Олівія Манн, Софі Тернер, Оскар Айзек, Роуз Бірн, Еван Пітерс, Тай Шерідан

Сюжет:
Цього разу загону молодих мутантів належить битися з новим, більш сильним суперником, який називає себе Апокаліпсисом. Це перший мутант, що володіє колосальною силою і якому поклонялися в стародавньому Єгипті. Прокинувшись після тисячолітнього сну, безсмертний Апокаліпсис розчаровується в новому світі і вирішує його змінити. В якості помічників він обирає чотирьох мутантів, завдання яких перетворити наш світ на руїни. Однак Чарльз Ксавьє не може допустити, щоб подібне трапилося, навіть не дивлячись на ставлення звичайних людей до таких, як він.


Тривалість: 02:23:58
Якість: 1080p 3D [HalfOverUnder] ash61
Відео:
кодек:
розмір кадру: 1920 х 1080
бітрейт: 10.8 Мбіт/c

Аудіо # 1:
мова: українська
переклад: професійний дубльований
кодек: 5.1
бітрейт: 448 кб/с

Аудіо # 2:
мова: англійська
переклад: оригінал
кодек: 5.1
бітрейт: 640 кб/с

Субтитри:
мова: українська (Форсовані,Повні) [витягування і розпізнавання : igor911]
тип: програмні (м'які)
формат: *.srt

Субтитри:
мова: англійська
тип: програмні (м'які)
формат: *.srt
MediaInfo
Код:
General
Unique ID                      : 195996804722400167952355488499159917153 (0x93739C8CB3271E448E6C29EDA869E261)
Complete name                  : D:\3D\Художні\X-Men. Apocalypse (2016) 1080p 3D [HalfOverUnder] [Ukr.Eng].mkv
Format                         : Matroska
Format version                 : Version 4 / Version 2
File size                      : 11.9 GiB
Duration                       : 2h 23mn
Overall bit rate               : 11.9 Mbps
Movie name                     : Люди Ікс: Апокаліпсис / X-Men: Apocalypse (2016) у 3D
Encoded date                   : UTC 2016-09-16 07:39:38
Writing application            : mkvmerge v8.8.0 ('Wind at my back') 64bit
Writing library                : libebml v1.3.3 + libmatroska v1.4.4
Cover                          : Yes
Attachments                    : cover.jpg

Video
ID                             : 1
Format                         : AVC
Format/Info                    : Advanced Video Codec
Format profile                 : [email protected]
Format settings, CABAC         : Yes
Format settings, ReFrames      : 4 frames
Codec ID                       : V_MPEG4/ISO/AVC
Duration                       : 2h 23mn
Bit rate                       : 10.8 Mbps
Width                          : 1 920 pixels
Height                         : 1 080 pixels
Display aspect ratio           : 16:9
Frame rate mode                : Constant
Frame rate                     : 23.976 (24000/1001) fps
Color space                    : YUV
Chroma subsampling             : 4:2:0
Bit depth                      : 8 bits
Scan type                      : Progressive
Bits/(Pixel*Frame)             : 0.217
Stream size                    : 10.8 GiB (91%)
Title                          : by Ash61
Writing library                : core 146 r2538 121396c
Encoding settings              : cabac=1 / ref=4 / deblock=1:-3:-3 / analyse=0x3:0x113 / me=umh / subme=10 / psy=1 / psy_rd=1.00:0.00 / mixed_ref=1 / me_range=32 / chroma_me=1 / trellis=2 / 8x8dct=1 / cqm=0 / deadzone=21,11 / fast_pskip=1 / chroma_qp_offset=-2 / threads=12 / lookahead_threads=3 / sliced_threads=0 / nr=0 / decimate=1 / interlaced=0 / bluray_compat=0 / constrained_intra=0 / bframes=15 / b_pyramid=2 / b_adapt=2 / b_bias=0 / direct=3 / weightb=1 / open_gop=0 / weightp=2 / keyint=250 / keyint_min=23 / scenecut=40 / intra_refresh=0 / rc_lookahead=60 / rc=crf / mbtree=1 / crf=15.5 / qcomp=0.70 / qpmin=0 / qpmax=69 / qpstep=4 / vbv_maxrate=40000 / vbv_bufsize=30000 / crf_max=0.0 / nal_hrd=none / filler=0 / frame-packing=4 / ip_ratio=1.40 / aq=1:0.70
Language                       : English
Default                        : Yes
Forced                         : No

Audio #1
ID                             : 2
Format                         : AC-3
Format/Info                    : Audio Coding 3
Mode extension                 : CM (complete main)
Format settings, Endianness    : Big
Codec ID                       : A_AC3
Duration                       : 2h 23mn
Bit rate mode                  : Constant
Bit rate                       : 448 Kbps
Channel(s)                     : 6 channels
Channel positions              : Front: L C R, Side: L R, LFE
Sampling rate                  : 48.0 KHz
Frame rate                     : 31.250 fps (1536 spf)
Compression mode               : Lossy
Stream size                    : 461 MiB (4%)
Title                          : Ukr 5.1
Language                       : Ukrainian
Default                        : Yes
Forced                         : No

Audio #2
ID                             : 3
Format                         : AC-3
Format/Info                    : Audio Coding 3
Mode extension                 : CM (complete main)
Format settings, Endianness    : Big
Codec ID                       : A_AC3
Duration                       : 2h 23mn
Bit rate mode                  : Constant
Bit rate                       : 640 Kbps
Channel(s)                     : 6 channels
Channel positions              : Front: L C R, Side: L R, LFE
Sampling rate                  : 48.0 KHz
Frame rate                     : 31.250 fps (1536 spf)
Compression mode               : Lossy
Stream size                    : 659 MiB (5%)
Title                          : Original
Language                       : English
Default                        : No
Forced                         : No

Text #1
ID                             : 4
Format                         : UTF-8
Codec ID                       : S_TEXT/UTF8
Codec ID/Info                  : UTF-8 Plain Text
Duration                       : 2h 20mn
Bit rate                       : 3 bps
Count of elements              : 96
Stream size                    : 3.13 KiB (0%)
Title                          : by igor911
Language                       : Ukrainian
Default                        : Yes
Forced                         : No

Text #2
ID                             : 5
Format                         : UTF-8
Codec ID                       : S_TEXT/UTF8
Codec ID/Info                  : UTF-8 Plain Text
Duration                       : 2h 22mn
Bit rate                       : 49 bps
Count of elements              : 1463
Stream size                    : 51.4 KiB (0%)
Title                          : Ukr Full
Language                       : Ukrainian
Default                        : No
Forced                         : No

Text #3
ID                             : 6
Format                         : UTF-8
Codec ID                       : S_TEXT/UTF8
Codec ID/Info                  : UTF-8 Plain Text
Duration                       : 2h 12mn
Bit rate                       : 38 bps
Count of elements              : 1458
Stream size                    : 37.6 KiB (0%)
Title                          : Full
Language                       : English
Default                        : No
Forced                         : No

Text #4
ID                             : 7
Format                         : UTF-8
Codec ID                       : S_TEXT/UTF8
Codec ID/Info                  : UTF-8 Plain Text
Duration                       : 1h 26mn
Bit rate                       : 3 bps
Count of elements              : 97
Stream size                    : 1.93 KiB (0%)
Title                          : Forced
Language                       : English
Default                        : No
Forced                         : No

Menu
00:00:00.000                   : : 1
00:08:18.788                   : : 2
00:14:13.184                   : : 3
00:18:07.086                   : : 4
00:24:55.492                   : : 5
00:30:45.343                   : : 6
00:36:35.233                   : : 7
00:41:00.081                   : : 8
00:45:56.503                   : : 9
00:49:24.293                   : : 10
00:55:22.610                   : : 11
00:59:36.822                   : : 12
01:04:43.670                   : : 13
01:12:35.850                   : : 14
01:17:32.898                   : : 15
01:22:18.515                   : : 16
01:27:45.592                   : : 17
01:34:05.805                   : : 18
01:36:46.634                   : : 19
01:39:50.900                   : : 20
01:43:34.373                   : : 21
01:49:57.381                   : : 22
01:55:08.359                   : : 23
01:57:21.658                   : : 24
02:03:50.547                   : : 25
02:07:56.710                   : : 26
02:10:59.100                   : : 27
02:12:54.091                   : : 28
Скріншоти
Джерело: &
Особиста оцінка: 8 - мені сподобалося

Відео для перегляду на 3D обладнанні!


 Трекер:    Зареєстрований   

Завантажити / скачати фільм українською



відео для новачків



 Зареєстрований:   2016-09-16 10:15
 Розмір:   11.92 GB 
 Оцінка фільму:   8.4/10 (Голосів: 12)
   
-VipeR- 
VIP


З нами з: 17.07.08
Востаннє: 05.12.16
Повідомлень: 275

2016-09-16 10:17  
Реліз оновлено!
Замінено українську доріжку на 5.1 448 kb/s, додано повні українські субтитри!

11FrYkT 
Модератор відео


З нами з: 20.02.11
Востаннє: 05.12.16
Повідомлень: 3094

2016-09-16 10:22  
-VipeR- , витягування і розпізнавання
Цитата:
[переклад: igor911]


Додано через 1 хвилину 10 секунд:

золото на тиждень для заохочення підтримки

His_Infernal_Majesty 
Новенький


З нами з: 01.12.14
Востаннє: 05.12.16
Повідомлень: 12

2016-09-23 20:40  
гарний фільм, мені сподобався+ спецефекти на висоті
Ваш часовий пояс: GMT + 2 Години

Нова тема   Відповісти