Завантажити та скачати торренти українською


Воркрафт (Варкрафт): Початок / Warcraft (2016) 1080p Ukr/Eng

Нові коментарі

Нова тема   Відповісти
Автор Повідомлення
corega 
Новенький


З нами з: 15.10.08
Востаннє: 29.11.16
Повідомлень: 14

2016-09-10 11:41  
Воркрафт (Варкрафт): Початок / Warcraft (2016) 1080p Ukr/Eng



Жанр: пригоди, фентезі, дія
Країна: США, Канада, Японія, Китай



Кінокомпанія: Universal Pictures, Atlas Entertainment, Legendary Pictures, Blizzard Entertainment
Режисер: Дункан Джонс
Актори: Бен Фостер, Тобі Кеббелл, Домінік Купер, Раян Роббінс, Роберт Казінськи, Тревіс Фіммел, Паула Паттон, Кленсі Браун, Каллен Мулвей, Рут Неґґа

Сюжет:
Фантастичний фільм від режисера "Місяць 2112" і "Початкового Коду" Дункана Джонса. Епічна стрічка про протистояння людей і орків, заснована на серії популярних відеоігор та романів. Королівство Азерота знаходиться на порозі війни. Мирні жителі зі своїм ватажком Андуіном Лотаром стикаються із расою жорстоких загарбників - орків. Ті, в свою чергу, шукають нову землю, бо їхня батьківщина Дренор більше не придатна для життя. Два світи з'єднає Темний портал, за допомогою якого військо ватажка орків Дуротана увірветься на землі людей. Яка раса візьме гору в цій смертельній сутичці?

Тривалість: 02:03:07
Якість: 1080p

Відео:
кодек:
розмір кадру: 1920 х 792
бітрейт: 8597 Кбіт/с

Аудіо # 1:
мова: українська
переклад: професійний дубльований
кодек: 2.0
бітрейт: 192 Кбіт/с

Аудіо # 2:
мова: англійська
переклад: оригінал
кодек: 5.1
бітрейт: 640 Кбіт/с

Субтитри: (окремо)
мова: українська (форсовані - завантажити, повні - завантажити)
тип: програмні (м'які)
формат: *.srt

Збережено оригінальні розділи.
MediaInfo
Цитата:
General
Unique ID : 183098530861296703249641206435414305526 (0x89BF7E8CCC4ED951A7D049CE2C346AF6)
Complete name : I:\Warcraft (2016) [Ukr,Eng] 1080p [Hurtom].mkv
Format : Matroska
Format version : Version 4 / Version 2
File size : 8.11 GiB
Duration : 2h 3mn
Overall bit rate : 9 432 Kbps
Encoded date : UTC 2016-09-11 08:50:08
Writing application : mkvmerge v8.3.0 ('Over the Horizon') 32bit
Writing library : libebml v1.3.1 + libmatroska v1.4.2
DURATION : 02:03:05.920000000
NUMBER_OF_FRAMES : 230810
NUMBER_OF_BYTES : 177262080
_STATISTICS_WRITING_APP : mkvmerge v8.3.0 ('Over the Horizon') 32bit
_STATISTICS_WRITING_DATE_UTC : 2016-09-11 08:50:08
_STATISTICS_TAGS : BPS DURATION NUMBER_OF_FRAMES NUMBER_OF_BYTES
Attachment : Yes

Video
ID : 1
Format : AVC
Format/Info : Advanced Video Codec
Format profile : [email protected]
Format settings, CABAC : Yes
Format settings, ReFrames : 5 frames
Codec ID : V_MPEG4/ISO/AVC
Duration : 2h 3mn
Bit rate : 8 597 Kbps
Width : 1 920 pixels
Height : 792 pixels
Display aspect ratio : 2.40:1
Frame rate mode : Constant
Frame rate : 23.976 fps
Color space : YUV
Chroma subsampling : 4:2:0
Bit depth : 8 bits
Scan type : Progressive
Bits/(Pixel*Frame) : 0.236
Stream size : 7.23 GiB (89%)
Writing library : core 148 r2692 64f4e24
Encoding settings : cabac=1 / ref=5 / deblock=1:0:0 / analyse=0x3:0x133 / me=umh / subme=7 / psy=1 / psy_rd=1.00:0.00 / mixed_ref=1 / me_range=16 / chroma_me=1 / trellis=1 / 8x8dct=1 / cqm=0 / deadzone=21,11 / fast_pskip=0 / chroma_qp_offset=-2 / threads=25 / lookahead_threads=4 / sliced_threads=0 / nr=0 / decimate=1 / interlaced=0 / bluray_compat=0 / constrained_intra=0 / bframes=3 / b_pyramid=2 / b_adapt=1 / b_bias=0 / direct=1 / weightb=1 / open_gop=0 / weightp=2 / keyint=250 / keyint_min=23 / scenecut=40 / intra_refresh=0 / rc_lookahead=40 / rc=2pass / mbtree=1 / bitrate=8597 / ratetol=1.0 / qcomp=0.60 / qpmin=0 / qpmax=69 / qpstep=4 / cplxblur=20.0 / qblur=0.5 / ip_ratio=1.40 / aq=1:1.00
Language : English
Default : Yes
Forced : No
DURATION : 02:03:07.350000000
NUMBER_OF_FRAMES : 177119
NUMBER_OF_BYTES : 7939017957
_STATISTICS_WRITING_APP : mkvmerge v8.3.0 ('Over the Horizon') 32bit
_STATISTICS_WRITING_DATE_UTC : 2016-09-11 08:50:08
_STATISTICS_TAGS : BPS DURATION NUMBER_OF_FRAMES NUMBER_OF_BYTES

Audio #1
ID : 2
Format : AC-3
Format/Info : Audio Coding 3
Mode extension : CM (complete main)
Format settings, Endianness : Big
Codec ID : A_AC3
Duration : 2h 3mn
Bit rate mode : Constant
Bit rate : 192 Kbps
Channel(s) : 2 channels
Channel positions : Front: L R
Sampling rate : 48.0 KHz
Bit depth : 16 bits
Compression mode : Lossy
Stream size : 169 MiB (2%)
Title : Дубляж [ 2.0 192 кб/с]
Language : Ukrainian
Default : Yes
Forced : No

Audio #2
ID : 3
Format : AC-3
Format/Info : Audio Coding 3
Mode extension : CM (complete main)
Format settings, Endianness : Big
Codec ID : A_AC3
Duration : 2h 3mn
Bit rate mode : Constant
Bit rate : 640 Kbps
Channel(s) : 6 channels
Channel positions : Front: L C R, Side: L R, LFE
Sampling rate : 48.0 KHz
Bit depth : 16 bits
Compression mode : Lossy
Stream size : 564 MiB (7%)
Title : Original
Language : English
Default : No
Forced : No

Menu
00:00:00.000 : en:00:00:00.000
00:09:26.483 : en:00:09:26.483
00:15:49.407 : en:00:15:49.407
00:22:36.146 : en:00:22:36.146
00:29:16.171 : en:00:29:16.171
00:38:43.321 : en:00:38:43.321
00:46:44.093 : en:00:46:44.093
00:53:02.679 : en:00:53:02.679
00:56:17.332 : en:00:56:17.332
01:02:43.927 : en:01:02:43.927
01:07:48.314 : en:01:07:48.314
01:12:24.549 : en:01:12:24.549
01:17:13.045 : en:01:17:13.045
01:22:45.669 : en:01:22:45.669
01:26:32.145 : en:01:26:32.145
01:32:29.669 : en:01:32:29.669
01:40:25.102 : en:01:40:25.102
01:47:38.118 : en:01:47:38.118
01:51:12.833 : en:01:51:12.833
01:53:58.832 : en:01:53:58.832


Підтримати купівлю інших фільмів можна тут.

Подяка пану Covenant за доріжку.


 Трекер:    Зареєстрований   

Завантажити / скачати фільм українською



відео для новачків



 Зареєстрований:   2016-09-10 11:41
 Розмір:   8.11 GB 
 Оцінка фільму:   8.2/10 (Голосів: 16)
   
maleficmax 
Частий відвідувач


З нами з: 18.04.12
Востаннє: 27.11.16
Повідомлень: 26

2016-09-10 17:14  
Звідки доріжка?
corega 
Новенький


З нами з: 15.10.08
Востаннє: 29.11.16
Повідомлень: 14

2016-09-10 17:34  
maleficmax
Звідси http://toloka.to/t74886, там немає уточнення.
Пану Covenant-у задайте це питання.

maleficmax 
Частий відвідувач


З нами з: 18.04.12
Востаннє: 27.11.16
Повідомлень: 26

2016-09-10 17:39  
UPD. Послухав. У кращому разі LineIn. Вкажіть будь ласка в описі, я витратив щойно 9 цінних гігабайт трафіку за жахливий звук Sad (1)
maleficmax 
Частий відвідувач


З нами з: 18.04.12
Востаннє: 27.11.16
Повідомлень: 26

2016-09-10 22:15  
Поповзав по інету та не бачу інфо про те, що українська дорога взагалі десь буде... Сумно (
Мабуть є сенс скидатися на замовлення закадрового, хоча такий непоганий був дубляж...

igor911 
Відео Гуртом
Відео Гуртом


З нами з: 18.01.08
Востаннє: 05.12.16
Повідомлень: 5133

2016-10-20 21:59  
Посилання на українські субтитри додано в опис.
Ваш часовий пояс: GMT + 2 Години

Нова тема   Відповісти