Завантажити та скачати торренти українською


Перший месник: Протистояння / Captain America: Civil War (2016) 1080p Ukr/Eng | Sub Eng [IMAX]

Нові коментарі

Нова тема   Відповісти
Автор Повідомлення
XXXVIRUS 
Частий відвідувач


З нами з: 15.06.10
Востаннє: 07.12.16
Повідомлень: 33

2016-09-10 11:25  
Перший месник: Протистояння / Captain America: Civil War (2016) 1080p Ukr/Eng | Sub Eng [IMAX]

Перший месник: Протистояння / Captain America: Civil War (2016) 1080p Ukr/Eng | Sub Eng [IMAX]


Жанр: екшн, пригодницький, фантастика
Країна: США, Німеччина



Кінокомпанія: Marvel Studios, Vita-Ray Dutch Productions (III), Studio Babelsberg
Режисер: Ентоні Руссо, Джо Руссо
Актори: Кріс Еванс, Роберт Дауні-молодший, Скарлетт Йоганссен, Себастьян Стен, Ентоні Макі, Дон Чідл, Джеремі Ренер, Чедвік Боузман, Пол Беттані, Елізабет Олсен, Пол Радд, Емілі ВанКемп, Том Голланд, Даніель Брюль, Френк Ґрілло

Сюжет:
Месники під керівництвом Капітана Америки виявляються учасниками руйнівного інциденту, що має міжнародний масштаб. Ці події змушують уряд замислитися над тим, щоб почати регулювати дії всіх людей з особливими здібностями, ввівши «Акт про реєстрацію супергероїв», змушуючи їх підкорятися ООН. Бачачи в цьому договорі порушення громадянських прав, у що він вірить, Стів Роджерс відкрито повстає проти нового режиму, ведучи за собою групу героїв, що підтримують його думку. У свою чергу, Тоні Старк бачить сенс у новому договорі і стає на чолі героїв, які підтримують його. Все це призводить до неминучого розколу Месників і війні між сторонами. Б'ючись один з одним, Старк і Роджерс не знають про те, що таємничий Барон Земо вже будує свої власні плани, скориставшись розколом найбільших героїв Землі.


Тривалість: 02:27:41
Якість: 1080p (DON)
Відео:
кодек:
розмір кадру: 1920 x 1040
бітрейт: 11900 кб/с

Аудіо # 1:
мова: українська
переклад: професійний дубльований
кодек: 5.1
бітрейт: 1536 кб/с

Аудіо # 2:
мова: англійська
переклад: оригінал
кодек: 5.1
бітрейт: 1536 кб/с

Аудіо # 3:
мова: англійська
переклад: оригінал |Audio Commentary with Directors Anthony and Joe Russo and screenwriters Christopher Markus and Stephen McFeely|
кодек: 2.0
бітрейт: 192 кб/с

Субтитри (Forced):
мова: українська
тип: програмні (м'які)
формат: *.srt

Субтитри (Forced, Full, SDH):
мова: англійська
тип: програмні (м'які)
формат: *.srt
MediaInfo
Complete name : E:\Фільми\Captain.America.Civil.War.2016.IMAX.Hybrid.1080p.BluRay.-DON.Ukr.Eng.mkv
Format : Matroska
Format version : Version 2
File size : 15.6 GiB
Duration : 2h 27mn
Overall bit rate : 15.1 Mbps
Movie name : XXXVIRUS
Encoded date : UTC 2016-09-10 09:04:17
Writing application : mkvmerge v3.4.0 ('Rapunzel') збірка від May 18 2010 22:32:11
Writing library : libebml v0.8.0 + libmatroska v0.9.0

Video
ID : 1
Format : AVC
Format/Info : Advanced Video Codec
Format profile : [email protected]
Format settings, CABAC : Yes
Format settings, ReFrames : 4 frames
Codec ID : V_MPEG4/ISO/AVC
Duration : 2h 27mn
Bit rate : 11.9 Mbps
Width : 1 920 pixels
Height : 1 040 pixels
Display aspect ratio : 1.85:1
Frame rate mode : Constant
Frame rate : 23.976 fps
Color space : YUV
Chroma subsampling : 4:2:0
Bit depth : 8 bits
Scan type : Progressive
Bits/(Pixel*Frame) : 0.249
Stream size : 12.0 GiB (77%)
Title : DON
Writing library : core 148 r2705 3f5ed56
Encoding settings : cabac=1 / ref=4 / deblock=1:-3:-3 / analyse=0x3:0x133 / me=umh / subme=11 / psy=1 / psy_rd=1.00:0.00 / mixed_ref=1 / me_range=48 / chroma_me=1 / trellis=2 / 8x8dct=1 / cqm=0 / deadzone=21,11 / fast_pskip=0 / chroma_qp_offset=-2 / threads=18 / lookahead_threads=3 / sliced_threads=0 / slices=4 / nr=0 / decimate=0 / interlaced=0 / bluray_compat=0 / constrained_intra=0 / bframes=8 / b_pyramid=2 / b_adapt=2 / b_bias=0 / direct=3 / weightb=1 / open_gop=0 / weightp=2 / keyint=250 / keyint_min=23 / scenecut=40 / intra_refresh=0 / rc_lookahead=40 / rc=2pass / mbtree=0 / bitrate=11900 / ratetol=1.0 / qcomp=0.65 / qpmin=0 / qpmax=51 / qpstep=4 / cplxblur=20.0 / qblur=0.5 / vbv_maxrate=62500 / vbv_bufsize=78125 / nal_hrd=none / filler=0 / ip_ratio=1.40 / pb_ratio=1.30 / aq=3:0.75 / zones=137,444,b=1.5/2791,3715,b=1.5/11919,12149,b=1.5/38869,39030,b=1.5/45969,46091,b=1.5/65040,65103,b=1.5/66977,67498,b=1.5/98905,101042,b=1.5/104125,104929,b=1.5/110329,111098,b=1.5/112679,118898,b=1.5/119919,119947,b=1.5/121895,122474,b=1.5/133205,133227,b=1.5/140764,141308,b=1.5/156558,157851,b=1.5/159830,160460,b=1.5/166369,166736,b=1.5/167192,167315,b=1.5/178642,178732,b=1.5/201362,210763,b=1.1
Language : English
Default : Yes
Forced : Yes

Audio #1
ID : 2
Format :
Format/Info : Digital Theater Systems
Mode : 16
Format settings, Endianness : Big
Codec ID : A_DTS
Duration : 2h 27mn
Bit rate mode : Constant
Bit rate : 1 509 Kbps
Channel(s) : 6 channels
Channel positions : Front: L C R, Side: L R, LFE
Sampling rate : 48.0 KHz
Bit depth : 24 bits
Compression mode : Lossy
Stream size : 1.56 GiB (10%)
Title : 5.1 @ 1536 kb/s
Language : Ukrainian
Default : Yes
Forced : Yes

Audio #2
ID : 3
Format :
Format/Info : Digital Theater Systems
Mode : 16
Format settings, Endianness : Big
Codec ID : A_DTS
Duration : 2h 27mn
Bit rate mode : Constant
Bit rate : 1 509 Kbps
Channel(s) : 6 channels
Channel positions : Front: L C R, Side: L R, LFE
Sampling rate : 48.0 KHz
Bit depth : 24 bits
Compression mode : Lossy
Delay relative to video : 11ms
Stream size : 1.56 GiB (10%)
Title : 5.1 @ 1536 kb/s
Language : English
Default : No
Forced : No

Audio #3
ID : 4
Format : AC-3
Format/Info : Audio Coding 3
Mode extension : CM (complete main)
Format settings, Endianness : Big
Codec ID : A_AC3
Duration : 2h 27mn
Bit rate mode : Constant
Bit rate : 192 Kbps
Channel(s) : 2 channels
Channel positions : Front: L R
Sampling rate : 48.0 KHz
Compression mode : Lossy
Stream size : 203 MiB (1%)
Title : English Commentary with Directors Anthony and Joe Russo, and Writers Christopher Markus and
Language : English
Default : No
Forced : No

Text #1
ID : 5
Format : UTF-8
Codec ID : S_TEXT/UTF8
Codec ID/Info : UTF-8 Plain Text
Title : Forced
Language : Ukrainian
Default : Yes
Forced : Yes

Text #2
ID : 6
Format : UTF-8
Codec ID : S_TEXT/UTF8
Codec ID/Info : UTF-8 Plain Text
Title : Forced
Language : English
Default : No
Forced : No

Text #3
ID : 7
Format : UTF-8
Codec ID : S_TEXT/UTF8
Codec ID/Info : UTF-8 Plain Text
Title : Full
Language : English
Default : No
Forced : No

Text #4
ID : 8
Format : UTF-8
Codec ID : S_TEXT/UTF8
Codec ID/Info : UTF-8 Plain Text
Title : SDH
Language : English
Default : No
Forced : No

Text #5
ID : 9
Format : UTF-8
Codec ID : S_TEXT/UTF8
Codec ID/Info : UTF-8 Plain Text
Title : Commentary
Language : English
Default : No
Forced : No

Menu
00:00:00.000 : en:Prologue
00:09:01.958 : en:Lagos
00:13:04.992 : en:I'm Right Where I Want to Be
00:21:03.345 : en:The Sokovia Accords
00:27:53.380 : en:We Need to Be Put in Check
00:31:57.290 : en:Peggy's Funeral
00:35:08.397 : en:Supporting the Initiative
00:42:58.450 : en:It Always Ends in a Fight
00:52:04.621 : en:Bucky's Evaluation
01:05:39.101 : en:Breakout
01:16:41.638 : en:Queens
01:22:28.777 : en:Hawkeye Returns
01:29:29.489 : en:You're After the Wrong Guy
01:34:09.769 : en:We Fight
01:45:38.582 : en:We Played This Wrong
01:55:54.322 : en:Zemo Revealed
02:02:35.056 : en:Steve vs. Tony
02:12:14.176 : en:We All Need Family
02:18:29.384 : en:End Credits

info

[info]: frame I:1757 Avg QP:10.35 size:270104
[info]: frame P:61111 Avg QP:14.13 size:102595
[info]: frame B:149606 Avg QP:15.35 size: 43027
[info]: consecutive B-frames: 8.8% 5.4% 13.9% 13.0% 14.5% 39.4% 4.0% 0.4% 0.5%
Скріншоти
Джерело: &


 Трекер:    Зареєстрований   

Завантажити / скачати фільм українською



відео для новачків



 Зареєстрований:   2016-09-10 11:25
 Розмір:   15.59 GB 
 Оцінка фільму:   9.2/10 (Голосів: 15)
   
zoomymba2012 
Новенький


З нами з: 08.01.15
Востаннє: 06.12.16
Повідомлень: 17

2016-09-25 16:55  
Хто-небуть буде робити 720р-mini, IMAX-версії третього кепа?
Violator 
VIP


З нами з: 14.04.09
Востаннє: 07.12.16
Повідомлень: 568

2016-12-06 18:07  
Можна окрема десь викласти аудіо із коментарями, субтитри до неї та укр. субтитри? Наперед вдячний!
Ваш часовий пояс: GMT + 2 Години

Нова тема   Відповісти