Завантажити та скачати торренти українською


Воно / It Follows (2014) AVC Ukr/Eng | Sub Eng

Нові коментарі

Нова тема   Відповісти
Автор Повідомлення
krigg070 
Відео Гуртом - фільмокрай
Відео Гуртом - фільмокрай


З нами з: 29.10.14
Востаннє: 02.12.16
Повідомлень: 346

2016-09-10 07:53  
Воно / It Follows (2014) AVC Ukr/Eng | Sub Eng



Жанр: трилер, жахи
Країна: США



Кінокомпанія: Northern Lights Films, Animal Kingdom, Two Flints
Режисер: Девід Роберт Мітчелл
Актори: Майка Монро, Кейр Гілкріст, Олівія Луккарді, Лілі Сепе, Деніел Дзоватто, Джейк Вірі, Бейлі Спрай, Деббі Вільямс, Рубі Харріс, Леіза Пулідо та інші

Сюжет:
Після сексуального зв’язку 19-річну дівчину на ім’я Джей починають мучити дивні видіння і непереборне відчуття того, що хтось або щось за нею стежить.

Тривалість: 01:40:12
Якість: AVC (potroks)
Відео:
кодек:
розмір кадру: 984 х 410
бітрейт: 1 639 кб/с

Аудіо #1:
мова: українська
переклад: багатоголосий закадровий
кодек: 2.0
бітрейт: 192 кб/с

Аудіо #2:
мова: англійська
переклад: оригінал
кодек: 2.0
бітрейт: 192 кб/с

Субтитри (Full, SDH):
мова: англійська
тип: програмні (м'які)
формат: *.srt
Скріншоти
MediaInfo
Код:
Video
ID                             : 1
Format                         : AVC
Format/Info                    : Advanced Video Codec
Format profile                 : [email protected]
Format settings, CABAC         : Yes
Format settings, ReFrames      : 12 frames
Codec ID                       : V_MPEG4/ISO/AVC
Duration                       : 1h 40mn
Bit rate                       : 1 639 Kbps
Width                          : 984 pixels
Height                         : 410 pixels
Display aspect ratio           : 2.40:1
Frame rate mode                : Constant
Frame rate                     : 23.976 (24000/1001) fps
Color space                    : YUV
Chroma subsampling             : 4:2:0
Bit depth                      : 8 bits
Scan type                      : Progressive
Bits/(Pixel*Frame)             : 0.169
Stream size                    : 1.12 GiB (79%)
Writing library                : core 146 r2538 121396c
Encoding settings              : cabac=1 / ref=12 / deblock=1:-2:-2 / analyse=0x3:0x113 / me=umh / subme=11 / psy=1 / psy_rd=1.05:0.10 / mixed_ref=1 / me_range=48 / chroma_me=1 / trellis=2 / 8x8dct=1 / cqm=0 / deadzone=21,11 / fast_pskip=0 / chroma_qp_offset=-3 / threads=9 / lookahead_threads=2 / sliced_threads=0 / nr=0 / decimate=1 / interlaced=0 / bluray_compat=0 / constrained_intra=0 / bframes=13 / b_pyramid=2 / b_adapt=2 / b_bias=0 / direct=3 / weightb=1 / open_gop=0 / weightp=2 / keyint=250 / keyint_min=23 / scenecut=40 / intra_refresh=0 / rc_lookahead=60 / rc=2pass / mbtree=0 / bitrate=1639 / ratetol=1.0 / qcomp=0.70 / qpmin=0 / qpmax=69 / qpstep=4 / cplxblur=20.0 / qblur=0.5 / vbv_maxrate=14000 / vbv_bufsize=14000 / nal_hrd=none / filler=0 / ip_ratio=1.35 / pb_ratio=1.25 / aq=1:0.80
Language                       : English
Default                        : No
Forced                         : No

Audio #1
ID                             : 2
Format                         : AC-3
Format/Info                    : Audio Coding 3
Mode extension                 : CM (complete main)
Format settings, Endianness    : Big
Codec ID                       : A_AC3
Duration                       : 1h 40mn
Bit rate mode                  : Constant
Bit rate                       : 192 Kbps
Channel(s)                     : 2 channels
Channel positions              : Front: L R
Sampling rate                  : 48.0 KHz
Frame rate                     : 31.250 fps (1536 spf)
Compression mode               : Lossy
Stream size                    : 138 MiB (10%)
Title                          : 2.0 @ 192 kbps - Новий канал
Language                       : Ukrainian
Default                        : Yes
Forced                         : No

Audio #2
ID                             : 3
Format                         : AC-3
Format/Info                    : Audio Coding 3
Mode extension                 : CM (complete main)
Format settings, Endianness    : Big
Codec ID                       : A_AC3
Duration                       : 1h 40mn
Bit rate mode                  : Constant
Bit rate                       : 192 Kbps
Channel(s)                     : 2 channels
Channel positions              : Front: L R
Sampling rate                  : 48.0 KHz
Frame rate                     : 31.250 fps (1536 spf)
Compression mode               : Lossy
Stream size                    : 138 MiB (10%)
Title                          : 2.0 @ 192 kbps - Original
Language                       : English
Default                        : No
Forced                         : No

Text
ID                             : 4
Format                         : UTF-8
Codec ID                       : S_TEXT/UTF8
Codec ID/Info                  : UTF-8 Plain Text
Title                          : Full, SDH
Language                       : English
Default                        : Yes
Forced                         : No

Menu
00:00:00.000                   : en:Chapter 01
00:03:53.024                   : en:Chapter 02
00:08:46.901                   : en:Chapter 03
00:13:58.671                   : en:Chapter 04
00:22:05.115                   : en:Chapter 05
00:27:20.930                   : en:Chapter 06
00:32:12.513                   : en:Chapter 07
00:44:38.467                   : en:Chapter 08
00:49:14.993                   : en:Chapter 09
00:53:58.485                   : en:Chapter 10
01:02:48.055                   : en:Chapter 11
01:07:45.019                   : en:Chapter 12
01:16:13.485                   : en:Chapter 13
01:26:19.007                   : en:Chapter 14
01:31:18.514                   : en:Chapter 15
01:35:42.194                   : en:Chapter 16
Джерело: &&


 Трекер:    Зареєстрований   

Завантажити / скачати фільм українською



відео для новачків



 Зареєстрований:   2016-09-10 20:53
 Розмір:   1.42 GB 
 Оцінка фільму:   8.8/10 (Голосів: 19)
   
Bod_zik99 
VIP


З нами з: 28.12.13
Востаннє: 03.12.16
Повідомлень: 812

2016-09-10 08:44  
Дуже люблю жахи,містику і все таке ,але цей фільм навіть додивитись не зміг.Не розумію чому його так всі хвалять.
Woland61 
VIP


З нами з: 01.05.08
Востаннє: 02.12.16
Повідомлень: 680

2016-09-10 10:35  
Таке щось )))

Я додивився, бо дивився останні хвилин 20 лише. І не розумів що в ньому )

bot 
робот


З нами з: 30.09.07
Востаннє: 26.05.05
Повідомлень: 15968

2016-09-10 20:53  
Тему перенесено з Анонси релізів до форуму Фільми


krigg070

olegderim 
VIP


З нами з: 08.02.11
Востаннє: 02.12.16
Повідомлень: 441

2016-09-11 07:55  
Оригінальна ідея. Чудове виконання. Уявляю, як би спаскудили цей фільм підстаркуваті голівудські зірки і 3Д-ефекти. Атмосфера невідворотности загибелі, перетворення звичного на загрозливе, саспенсу нагадує і стає на рівні з "Птахами" Хічкока.
10/10

Andriy063 
Відео Гуртом - підтримка та поширення
Відео Гуртом - підтримка та поширення


З нами з: 26.09.10
Востаннє: 02.12.16
Повідомлень: 371

2016-09-11 15:02  
olegderim
підтримую, дуже хороший фільм

olegant78 
Новенький


З нами з: 24.01.15
Востаннє: 03.12.16
Повідомлень: 7

2016-09-12 07:10  
Бляха,я вночі дивився сам - було страшно шо пипець).
igordatsko 
Новенький


З нами з: 31.10.10
Востаннє: 01.12.16
Повідомлень: 3

2016-09-12 18:12  
Фігня повна. Фільм зроблений старшокласниками.
legos25 
Відео Гуртом - запис з ТБ
Відео Гуртом - запис з ТБ


З нами з: 02.02.10
Востаннє: 02.12.16
Повідомлень: 1105

2016-09-25 14:52  
Укр. Постер

eXteSy- 
VIP


З нами з: 06.04.09
Востаннє: 03.12.16
Повідомлень: 1450

2016-09-25 18:41  
Дуже посередній фільм. Моментами непогано наганяється саспенс і відчуття невідворотнього, але забагато ставки все-таки на різкі звуки і т.п. Разок переглянути можна (любителям жахів), але не більше.
6,5/10

Myk1209 
Свій


З нами з: 04.02.12
Востаннє: 02.12.16
Повідомлень: 111

2016-09-25 19:13  
НіякеSad (1)
Ваш часовий пояс: GMT + 2 Години

Нова тема   Відповісти