Завантажити та скачати торренти українською


Angry Birds в кіно / The Angry Birds Movie (2016) AVC Ukr/Eng | Sub Ukr/Eng

Нові коментарі

Нова тема   Відповісти
Автор Повідомлення
Anonymous 







2016-09-07 18:52  
Angry Birds в кіно / The Angry Birds Movie (2016) AVC Ukr/Eng | Sub Ukr/Eng

Angry Birds в кіно / The Angry Birds Movie (2016) AVC Ukr/Eng | Sub Ukr/Eng

Українські постери












повнорозмірні зображення відкриються по кліку (з натиснутим CTRL чи кліком середньою кнопкою мишки - у новій вкладці)

Жанр: комедія, бойовик, сімейний
Країна: США, Фінляндія



Кінокомпанія: Columbia Pictures, LStar Capital, Rovio Animation, Rovio Entertainment, Rovio Mobile, Sony Pictures Animation, Sony Pictures Imageworks, Village Roadshow Pictures
Режисер: Клей Кейтіс, Фергал Рейлі
Актори: Джейсон Судейкіс, Пітер Дінклейдж, Білл Хейдер, Денні МакБрайд, Майя Рудольф, Джош Гад, Джилліан Белл, Айк Барінхолц

Сюжет:
На чудовому острові посеред океану живуть дивовижні герої. Одним з основних персонажів є симпатична і нешкідлива на вигляд пташка на ім'я Ред. Але у Реда великі проблеми - він ніяк не може впоратися зі своїм роздратуванням і злістю. Всі його дратують. Пташеня щиро бореться зі своїми недоліками, але якщо чесно, виходить у нього геть погано. Будь-яка ситуація, що викликає негатив, змушує Реда лютувати. Хлопець навіть записався на курси з управління гніву. У нього є друг Чак, який також не може похвалитися характером, щось божевільне є в ньому. Ну а про Бомба і зовсім добавить нечего. У нього є незвичайна здатність вибухати, як тільки трапляється щось несподіване або страшне. До всього, в один прекрасний день до острова причалює підозрілий транспорт. На ньому прибули ... зелені свині. Так-так, саме зелені. І ось ці самі гості вирішили оселитися поруч з нервовими пташками. Таке сусідство зовсім не влаштовує Реда і його друзів. Наростав конфлікт, який загрожував обернутися справжньою війною ...

Українські трейлери







Рейтинг MPAA: PG - рекомендується присутність батьків
Вікова категорія: 6+

Тривалість: 01:37:13
Якість: AVC
Відео:
кодек:
розмір кадру: 1024 х 554
бітрейт: 2200 Кбіт/с

Аудіо # 1:
мова: українська
переклад: професійний дубльований
кодек: 5.1
бітрейт: 448 Кбіт/с

Аудіо # 2:
мова: англійська
переклад: оригінал
кодек: 5.1
бітрейт: 448 Кбіт/с

Субтитри #1-2:
мова: українська (форсовані, повні)
тип: програмні (м'які)
формат: *.srt

Субтитри #3-4:
мова: англійська (повні, SDH)
тип: програмні (м'які)
формат: *.srt

Збережено оригінальні розділи, як на Blu-ray.
MediaInfo
Код:
Complete name               : The Angry Birds Movie (2016) [Ukr,Eng sub.Ukr,Eng] AVC [Hurtom].mkv
Format                      : Matroska
Format version              : Version 4 / Version 2
File size                   : 2.10 GiB
Duration                    : 1 h 37 min
Overall bit rate            : 3 099 kb/s
Movie name                  : Angry Birds у кіно / The Angry Birds Movie (2016) [Ukr,Eng sub.Ukr,Eng] AVC [Hurtom]
Writing library             : libebml v1.3.4 + libmatroska v1.4.5
Cover                       : Yes
Attachments                 : cover.jpg

Video
ID                          : 1
Format                      : AVC
Format/Info                 : Advanced Video Codec
Format profile              : [email protected]
Format settings, CABAC      : Yes
Format settings, ReFrames   : 10 frames
Codec ID                    : V_MPEG4/ISO/AVC
Duration                    : 1 h 37 min
Bit rate                    : 2 200 kb/s
Width                       : 1 024 pixels
Height                      : 554 pixels
Display aspect ratio        : 1.85:1
Frame rate mode             : Constant
Frame rate                  : 23.976 (24000/1001) FPS
Color space                 : YUV
Chroma subsampling          : 4:2:0
Bit depth                   : 8 bits
Scan type                   : Progressive
Bits/(Pixel*Frame)          : 0.162
Stream size                 : 1.49 GiB (71%)
Title                       : Angry Birds у кіно / The Angry Birds Movie (2016) AVC
Writing library             : core 148 r2638 7599210
Encoding settings           : cabac=1 / ref=10 / deblock=1:-3:-3 / analyse=0x3:0x133 / me=umh / subme=10 / psy=1 / psy_rd=1.00:0.10 / mixed_ref=1 / me_range=48 / chroma_me=1 / trellis=2 / 8x8dct=1 / cqm=0 / deadzone=21,11 / fast_pskip=0 / chroma_qp_offset=-3 / threads=6 / lookahead_threads=1 / sliced_threads=0 / nr=0 / decimate=1 / interlaced=0 / bluray_compat=0 / constrained_intra=0 / bframes=5 / b_pyramid=2 / b_adapt=2 / b_bias=0 / direct=3 / weightb=1 / open_gop=0 / weightp=2 / keyint=240 / keyint_min=22 / scenecut=40 / intra_refresh=0 / rc_lookahead=40 / rc=2pass / mbtree=1 / bitrate=2200 / ratetol=1.0 / qcomp=0.60 / qpmin=10 / qpmax=51 / qpstep=4 / cplxblur=20.0 / qblur=0.5 / ip_ratio=1.40 / aq=1:1.00
Language                    : English
Default                     : Yes
Forced                      : No

Audio #1
ID                          : 2
Format                      : AC-3
Format/Info                 : Audio Coding 3
Mode extension              : CM (complete main)
Format settings, Endianness : Big
Codec ID                    : A_AC3
Duration                    : 1 h 37 min
Bit rate mode               : Constant
Bit rate                    : 448 kb/s
Channel(s)                  : 6 channels
Channel positions           : Front: L C R, Side: L R, LFE
Sampling rate               : 48.0 kHz
Frame rate                  : 31.250 FPS (1536 spf)
Compression mode            : Lossy
Stream size                 : 312 MiB (14%)
Title                       : Dub [Blu-ray NORDiC] 5.1 448 Kbps
Language                    : Ukrainian
Default                     : Yes
Forced                      : No

Audio #2
ID                          : 3
Format                      : AC-3
Format/Info                 : Audio Coding 3
Mode extension              : CM (complete main)
Format settings, Endianness : Big
Codec ID                    : A_AC3
Duration                    : 1 h 37 min
Bit rate mode               : Constant
Bit rate                    : 448 kb/s
Channel(s)                  : 6 channels
Channel positions           : Front: L C R, Side: L R, LFE
Sampling rate               : 48.0 kHz
Frame rate                  : 31.250 FPS (1536 spf)
Compression mode            : Lossy
Stream size                 : 312 MiB (14%)
Title                       : Original, 5.1 448 Kbps
Language                    : English
Default                     : No
Forced                      : No

Text #1
ID                          : 4
Format                      : UTF-8
Codec ID                    : S_TEXT/UTF8
Codec ID/Info               : UTF-8 Plain Text
Duration                    : 1 h 25 min
Bit rate                    : 2 b/s
Count of elements           : 54
Stream size                 : 1.78 KiB (0%)
Title                       : Ukr forced
Language                    : Ukrainian
Default                     : Yes
Forced                      : No

Text #2
ID                          : 5
Format                      : UTF-8
Codec ID                    : S_TEXT/UTF8
Codec ID/Info               : UTF-8 Plain Text
Duration                    : 1 h 29 min
Bit rate                    : 97 b/s
Count of elements           : 1579
Stream size                 : 63.8 KiB (0%)
Title                       : Ukr full
Language                    : Ukrainian
Default                     : No
Forced                      : No

Text #3
ID                          : 6
Format                      : UTF-8
Codec ID                    : S_TEXT/UTF8
Codec ID/Info               : UTF-8 Plain Text
Duration                    : 1 h 29 min
Bit rate                    : 64 b/s
Count of elements           : 1527
Stream size                 : 41.9 KiB (0%)
Title                       : Eng full
Language                    : English
Default                     : No
Forced                      : No

Text #4
ID                          : 7
Format                      : UTF-8
Codec ID                    : S_TEXT/UTF8
Codec ID/Info               : UTF-8 Plain Text
Duration                    : 1 h 32 min
Bit rate                    : 90 b/s
Count of elements           : 2275
Stream size                 : 61.6 KiB (0%)
Title                       : Eng SDH
Language                    : English
Default                     : No
Forced                      : No

Menu
00:00:00.000                : en:Chapter 1
00:07:05.091                : en:Chapter 2
00:13:38.109                : en:Chapter 3
00:20:22.638                : en:Chapter 4
00:25:38.620                : en:Chapter 5
00:32:57.392                : en:Chapter 6
00:38:34.812                : en:Chapter 7
00:41:36.327                : en:Chapter 8
00:47:12.955                : en:Chapter 9
00:52:04.288                : en:Chapter 10
00:56:07.698                : en:Chapter 11
00:59:08.712                : en:Chapter 12
01:03:43.319                : en:Chapter 13
01:11:45.801                : en:Chapter 14
01:18:55.522                : en:Chapter 15
01:23:54.821                : en:Chapter 16


Джерело: &


 Трекер:    Зареєстрований   

Завантажити / скачати мультфільм українською



відео для новачків



 Зареєстрований:   2016-09-07 19:36
 Розмір:   2.1 GB 
 Оцінка мультфільму:   6.7/10 (Голосів: 34)
   
bot 
робот


З нами з: 30.09.07
Востаннє: 26.05.05
Повідомлень: 16018

2016-09-07 19:35  
Тему перенесено з Анонси релізів до форуму Мультфільми


igor911

Alexaxandroo 
Новенький


З нами з: 08.06.13
Востаннє: 06.12.16
Повідомлень: 2

2016-09-07 19:47  
Це те кхм кхм... нікчемне озвучення від Зєлєнскава і ко?
Anonymous 







2016-09-07 19:47  
Alexaxandroo, а що є ще якесь?
vigorst 
Новенький


З нами з: 07.07.09
Востаннє: 03.12.16
Повідомлень: 20

2016-09-25 16:44  
Проститут Зєлєнскій і тут встиг...
1009 
Поважний учасник


З нами з: 02.09.14
Востаннє: 06.12.16
Повідомлень: 230

2016-09-25 16:56  
Цитата:
vigorst

А чому ви ображаєте пана Зеленського
Мені озвучка 95 квартала ДУЖЕ сподобалось

ProgBassing 
Відео Гуртом - фільмокрай
Відео Гуртом - фільмокрай


З нами з: 08.03.08
Востаннє: 06.12.16
Повідомлень: 607

2016-09-25 17:24  
1009 написано:
Мені озвучка 95 квартала ДУЖЕ сподобалось


дуже посередня озвучка, навіть з нахилом до низу від тої "середини" :І

чувак не дуже напружувався, щоб витворити оригінальний типаж, просто набазарив як зміг, по-стандарту, зі 'щЬо'канням і, вже традиційно, з нерозбірливими словами в діалогах, що теж круто НЕ вітається... і тут питання: "Чим "його" ж таки ведмідь Педінґтон відрізняється від цього Реда?"

...хоча в принципі могло б вийти щось цікаве - все необхідне в нього є, от тільки голова дірява у цього ПАНА :/ ...теж мені, "пана" знайшли ..."шанованого"!

templier71 
Новенький


З нами з: 22.01.10
Востаннє: 04.12.16
Повідомлень: 11

2016-10-02 15:16  
Реально обговорення мультфільму (а конкретніше - його озвучення) перетворилося на виявлення ставлення окремих "панів" до Зеленського. Мало блогів для цього? Модератор мав би зреагувати на це (включаючи мій комент).
sergiyko.5 
VIP


З нами з: 25.02.16
Востаннє: 06.12.16
Повідомлень: 480

2016-11-07 20:19  
Помітив на 27 хвилині розсихрон.
Anonymous 







2016-11-07 20:23  
sergiyko.5, завтра перевірю.
Цитата:
Завантажили: [ 556 ]
дивно, що ніхто більше не помітив.
sergiyko.5 
VIP


З нами з: 25.02.16
Востаннє: 06.12.16
Повідомлень: 480

2016-11-07 20:53  
Вибачте, глюк медіаплеєра. На компьютері все добре.
olimpian1 
Новенький


З нами з: 19.10.13
Востаннє: 04.12.16
Повідомлень: 21

2016-11-13 10:01  
Непоганий мульт
Ваш часовий пояс: GMT + 2 Години

Нова тема   Відповісти