Завантажити та скачати торренти українською


Кайриси / Les valseuses (1974) 720p Fre | sub Ukr

Нові коментарі

Нова тема   Відповісти
Автор Повідомлення
antusyrzhuk 
Свій


З нами з: 09.06.09
Востаннє: 19.11.16
Повідомлень: 145

2016-09-07 07:56  
Кайриси / Les valseuses (1974) 720p Fre | sub Ukr

Кайриси / Les valseuses (1974) 720p Fre | sub Ukr


Жанр: комедія, драма
Країна: Франція



Кінокомпанія: C.A.P.A.C., S.N. Prodis, Universal Pictures France (UPF)
Режисер: Бертран Бліє (Bertrand Blier)
Актори: Жерар Депардьє (Gérard Depardieu), Патрік Девер (Patrick Dewaere), Міу-Міу (Miou-Miou), Жанна Моро (Jeanne Moreau), Ізабель Юппер (Isabelle Huppert) та інші.

Сюжет:
Двоє чудернацьких злочинців вештаються без цілі, нападають на жінок, іноді крадуть – забираючи все, що так цінують філістери: машини, спокій душі чи гарних доньок. Марі-Анж приєднується до них як коханка, кухарка та сповідниця. Вона теж вирушає у свою одісею за недосяжною сексуальною насолодою.

Фільм – чудова картина Франції сімдесятих. Одна із кращих французьких стрічок за версією TimeOut Magazine Paris.

Оригінальна французька назва фільму має значення мало пов’язане з вальсами та жінками, які їх танцюють (дослівно: вальсувальниці, приблизно так Happy). Les valseuses на сленгу означає “чоловічі яєчка”.

Бертран Бліє визнав, що для того щоб отримати дозвіл на показ у США. йому довелося вирізати фінал фільму, у якому троє головних персонажів гинуть в автокатастрофі.


Тривалість: 01:58:08
Якість:
Відео:
кодек:
розмір кадру: 1200 х 720
бітрейт: 4525 кб/с

Аудіо:
мова: французька
переклад: оригінал
кодек: 1.0
бітрейт: 768 кб/с

Субтитри:
мова: українська
тип: програмні (м'які)
формат: *.srt
переклад власний
Скріншоти


MediaInfo
Format : Matroska
Format version : Version 4 / Version 2
File size : 4.37 GiB
Duration : 1h 58mn
Overall bit rate : 5 294 Kbps
Movie name : Les valseuses*1974 /antusyrzhuk
Encoded date : UTC 2014-12-12 21:42:05
Writing application : mkvmerge v6.5.0 ('Isn't she lovely') built on Oct 20 2013 12:50:05
Writing library : libebml v1.3.0 + libmatroska v1.4.1

Video
ID : 1
Format : AVC
Format/Info : Advanced Video Codec
Format profile : [email protected]
Format settings, CABAC : Yes
Format settings, ReFrames : 5 frames
Codec ID : V_MPEG4/ISO/AVC
Duration : 1h 58mn
Bit rate : 4 525 Kbps
Width : 1 200 pixels
Height : 720 pixels
Display aspect ratio : 1.667
Frame rate mode : Constant
Frame rate : 23.976 fps
Color space : YUV
Chroma subsampling : 4:2:0
Bit depth : 8 bits
Scan type : Progressive
Bits/(Pixel*Frame) : 0.218
Stream size : 3.65 GiB (84%)
Writing library : core 119 r2106 07efeb4
Encoding settings : cabac=1 / ref=5 / deblock=1:0:0 / analyse=0x3:0x113 / me=umh / subme=7 / psy=1 / psy_rd=1.00:0.00 / mixed_ref=1 / me_range=16 / chroma_me=1 / trellis=1 / 8x8dct=1 / cqm=0 / deadzone=21,11 / fast_pskip=0 / chroma_qp_offset=-2 / threads=12 / sliced_threads=0 / nr=0 / decimate=1 / interlaced=0 / bluray_compat=0 / constrained_intra=0 / bframes=3 / b_pyramid=2 / b_adapt=1 / b_bias=0 / direct=1 / weightb=1 / open_gop=0 / weightp=2 / keyint=250 / keyint_min=23 / scenecut=40 / intra_refresh=0 / rc_lookahead=40 / rc=2pass / mbtree=1 / bitrate=4525 / ratetol=1.0 / qcomp=0.60 / qpmin=0 / qpmax=69 / qpstep=4 / cplxblur=20.0 / qblur=0.5 / ip_ratio=1.40 / aq=1:1.00
Default : Yes
Forced : No

Audio
ID : 2
Format :
Format/Info : Digital Theater Systems
Mode : 16
Format settings, Endianness : Big
Codec ID : A_DTS
Duration : 1h 58mn
Bit rate mode : Constant
Bit rate : 768 Kbps
Channel(s) : 1 channel
Channel positions : Front: C
Sampling rate : 48.0 KHz
Bit depth : 24 bits
Compression mode : Lossy
Stream size : 649 MiB (15%)
Language : French
Default : Yes
Forced : No

Text
ID : 3
Format : UTF-8
Codec ID : S_TEXT/UTF8
Codec ID/Info : UTF-8 Plain Text
Language : Ukrainian
Default : Yes
Forced : No
Джерело:
Особиста оцінка: 10 - без зайвих вагань рекомендую всім!


Золотий реліз (завантажене не впливає на рейтинг)
 Трекер:    Зареєстрований   

Завантажити / скачати фільм українською



відео для новачків



 Зареєстрований:   2016-09-07 07:56
 Розмір:   4.37 GB 
 Оцінка фільму:   10/10 (Голосів: 1)
   
taksist 
Свій


З нами з: 10.12.12
Востаннє: 04.12.16
Повідомлень: 51

2016-10-02 22:11  
мінус сто.
нюхати пальці, що вошкалися у волоссі жінки що в дупі - це дно.

olegderim 
VIP


З нами з: 08.02.11
Востаннє: 04.12.16
Повідомлень: 441

2016-11-14 14:53  
taksist
Цитата:
мінус сто.
нюхати пальці, що вошкалися у волоссі жінки що в дупі - це дно.

Це ̶С̶п̶а̶р̶т̶а̶!!! Це Франція 70-х!!!

Ваш часовий пояс: GMT + 2 Години

Нова тема   Відповісти