Завантажити та скачати торренти українською


Ron Cahute (Роман Когут) - iKozak (яКозак) (2010) [FLAC] | Pop Folk

Нові коментарі

Нова тема   Відповісти
Автор Повідомлення
ssTAss 
Модератор музики


З нами з: 05.07.08
Востаннє: 08.12.16
Повідомлень: 10947

2016-09-06 22:33  
Ron Cahute (Роман Когут) - iKozak (яКозак) (2010) [FLAC] | Pop Folk

Ron Cahute (Роман Когут) - iKozak (яКозак) (2010) [FLAC] | Pop Folk


Стиль: Pop Folk
Країна, місто: Канада, Торонто
Видавець: Ron Cahute
Виконавці:
Роман Когут
Пісні:
    01 - Козацька в'язанка
    02 - Night of the Kozaks
    03 - Ой видно село
    04 - Я сьогодні від вас від'їжджаю
    05 - Літав орел
    06 - Kozak Lullaby
    07 - Ой у лузі
    08 - Гей там на Кубані
    09 - Галю
    10 - Fly Kozak
    11 - Хмелю
    12 - Ride Kozak Ride
    13 - Ми діти роду козацького
    log
    Exact Audio Copy V1.0 beta 3 from 29. August 2011

    EAC extraction logfile from 13. December 2015, 11:06

    Ron Cahute / I Kozak

    Used drive : PBDS DVD+-RW DH-16W1S Adapter: 1 ID: 0

    Read mode : Secure
    Utilize accurate stream : Yes
    Defeat audio cache : Yes
    Make use of C2 pointers : No

    Read offset correction : 6
    Overread into Lead-In and Lead-Out : No
    Fill up missing offset samples with silence : Yes
    Delete leading and trailing silent blocks : No
    Null samples used in CRC calculations : Yes
    Used interface : Native Win32 interface for Win NT & 2000
    Gap handling : Appended to previous track

    Used output format : User Defined Encoder
    Selected bitrate : 128 kBit/s
    Quality : High
    Add ID3 tag : No
    Command line compressor : C:\Program Files\AIMP2 Tools\Encoders\flac.exe
    Additional command line options : -V -8 -T "Date=%year%" -T "Genre=%genre%" %source%

    TOC of the extracted CD

    Track | Start | Length | Start sector | End sector
    ---------------------------------------------------------
    1 | 0:00.00 | 2:56.38 | 0 | 13237
    2 | 2:56.38 | 3:20.50 | 13238 | 28287
    3 | 6:17.13 | 3:36.59 | 28288 | 44546
    4 | 9:53.72 | 4:01.57 | 44547 | 62678
    5 | 13:55.54 | 2:23.34 | 62679 | 73437
    6 | 16:19.13 | 5:23.05 | 73438 | 97667
    7 | 21:42.18 | 4:17.68 | 97668 | 117010
    8 | 26:00.11 | 2:23.10 | 117011 | 127745
    9 | 28:23.21 | 4:15.31 | 127746 | 146901
    10 | 32:38.52 | 3:31.33 | 146902 | 162759
    11 | 36:10.10 | 3:27.02 | 162760 | 178286
    12 | 39:37.12 | 2:51.38 | 178287 | 191149
    13 | 42:28.50 | 5:28.24 | 191150 | 215773

    Track 1

    Filename D:\My Music\01.Track 1 Master - Track 1 Master.wav

    Pre-gap length 0:00:02.00

    Peak level 96.6 %
    Extraction speed 1.7 X
    Track quality 100.0 %
    Test CRC 9127D2B5
    Copy CRC 9127D2B5
    Accurately ripped (confidence 1) [DE6C9DD0] (AR v2)
    Copy OK

    Track 2

    Filename D:\My Music\02.Track 2 Master - Track 2 Master.wav

    Pre-gap length 0:00:02.00

    Peak level 96.6 %
    Extraction speed 1.8 X
    Track quality 100.0 %
    Test CRC E2840AEF
    Copy CRC E2840AEF
    Accurately ripped (confidence 1) [A4090675] (AR v2)
    Copy OK

    Track 3

    Filename D:\My Music\03.Track 3 Master - Track 3 Master.wav

    Pre-gap length 0:00:02.00

    Peak level 96.6 %
    Extraction speed 1.8 X
    Track quality 99.9 %
    Test CRC F50C9F32
    Copy CRC F50C9F32
    Accurately ripped (confidence 1) [3247015D] (AR v2)
    Copy OK

    Track 4

    Filename D:\My Music\04.Track 4 Master - Track 4 Master.wav

    Pre-gap length 0:00:02.00

    Peak level 96.6 %
    Extraction speed 2.2 X
    Track quality 100.0 %
    Test CRC FAFD89DC
    Copy CRC FAFD89DC
    Accurately ripped (confidence 1) [E0B7A792] (AR v2)
    Copy OK

    Track 5

    Filename D:\My Music\05.Track 5 Master - Track 5 Master.wav

    Pre-gap length 0:00:02.00

    Peak level 96.6 %
    Extraction speed 2.2 X
    Track quality 100.0 %
    Test CRC 9DD66E03
    Copy CRC 9DD66E03
    Accurately ripped (confidence 1) [252DE5ED] (AR v2)
    Copy OK

    Track 6

    Filename D:\My Music\06.Track 6 Master - Track 6 Master.wav

    Pre-gap length 0:00:02.00

    Peak level 96.6 %
    Extraction speed 2.6 X
    Track quality 100.0 %
    Test CRC E2690CB1
    Copy CRC E2690CB1
    Accurately ripped (confidence 1) [30F38A49] (AR v2)
    Copy OK

    Track 7

    Filename D:\My Music\07.Track 7 Master - Track 7 Master.wav

    Pre-gap length 0:00:02.00

    Peak level 96.6 %
    Extraction speed 2.7 X
    Track quality 100.0 %
    Test CRC 5C4C467A
    Copy CRC 5C4C467A
    Accurately ripped (confidence 1) [4F5EDE1E] (AR v2)
    Copy OK

    Track 8

    Filename D:\My Music\08.Track 8 Master - Track 8 Master.wav

    Pre-gap length 0:00:02.00

    Peak level 96.6 %
    Extraction speed 2.6 X
    Track quality 100.0 %
    Test CRC 5BF251BB
    Copy CRC 5BF251BB
    Accurately ripped (confidence 1) [7F7D5F99] (AR v2)
    Copy OK

    Track 9

    Filename D:\My Music\09.Track 9 Master - Track 9 Master.wav

    Pre-gap length 0:00:02.00

    Peak level 96.6 %
    Extraction speed 2.9 X
    Track quality 100.0 %
    Test CRC F41DD186
    Copy CRC F41DD186
    Accurately ripped (confidence 1) [11D8A92B] (AR v2)
    Copy OK

    Track 10

    Filename D:\My Music\10.Track 10 Master - Track 10 Master.wav

    Pre-gap length 0:00:02.00

    Peak level 96.6 %
    Extraction speed 3.0 X
    Track quality 100.0 %
    Test CRC 797C1F45
    Copy CRC 797C1F45
    Accurately ripped (confidence 1) [DB20773C] (AR v2)
    Copy OK

    Track 11

    Filename D:\My Music\11.Track 11 Master - Track 11 Master.wav

    Pre-gap length 0:00:02.00

    Peak level 96.6 %
    Extraction speed 3.0 X
    Track quality 100.0 %
    Test CRC D2071C0A
    Copy CRC D2071C0A
    Accurately ripped (confidence 1) [CD249334] (AR v2)
    Copy OK

    Track 12

    Filename D:\My Music\12.Track 12 Master - Track 12 Master.wav

    Pre-gap length 0:00:02.00

    Peak level 96.6 %
    Extraction speed 3.0 X
    Track quality 100.0 %
    Test CRC F0A92174
    Copy CRC F0A92174
    Accurately ripped (confidence 1) [10304AF6] (AR v2)
    Copy OK

    Track 13

    Filename D:\My Music\13.Track 13 Master - Track 13 Master.wav

    Pre-gap length 0:00:02.00

    Peak level 96.6 %
    Extraction speed 3.1 X
    Track quality 99.9 %
    Test CRC B684A9E4
    Copy CRC B684A9E4
    Accurately ripped (confidence 1) [ACE64A8F] (AR v2)
    Copy OK

    All tracks accurately ripped

    No errors occurred

    End of status report

    ==== Log checksum 6D3E5A8305CBCEF803C1DB24ED3A6A12D8E3F2F4706A4AB36ECC994712D039B1 ====
    fooCDtect
    fooCDtect - foobar2000 + auCDtect, baralgin.

    auCDtect: CD records authenticity detector, version 0.8.2
    Copyright (c) 2004 Oleg Berngardt. All rights reserved.
    Copyright (c) 2004 Alexander Djourik. All rights reserved.

    mode: 0

    ===========================================
    Track: 01 - Козацька в'язанка
    Quality: CDDA 100%
    ===========================================
    Track: 02 - Night of the Kozaks
    Quality: MPEG 89%
    ===========================================
    Track: 03 - Ой видно село
    Quality: CDDA 100%
    ===========================================
    Track: 04 - Я сьогодні від вас від'їжджаю
    Quality: CDDA 100%
    ===========================================
    Track: 05 - Літав орел
    Quality: CDDA 99%
    ===========================================
    Track: 06 - Kozak Lullaby
    Quality: CDDA 100%
    ===========================================
    Track: 07 - Ой у лузі
    Quality: CDDA 100%
    ===========================================
    Track: 08 - Гей там на Кубані
    Quality: CDDA 100%
    ===========================================
    Track: 09 - Галю
    Quality: CDDA 100%
    ===========================================
    Track: 10 - Fly Kozak
    Quality: CDDA 100%
    ===========================================
    Track: 11 - Хмелю
    Quality: CDDA 100%
    ===========================================
    Track: 12 - Ride Kozak Ride
    Quality: CDDA 100%
    ===========================================
    Track: 13 - Ми діти роду козацького
    Quality: CDDA 100%
    ===========================================

Тривалість: 00:47:57
Мова: українська, англійська (2,6,10,12)
Аудіо-кодек: FLAC
Бітрейт: 916 кб/с
Джерело: ріп надав gorislavets
Додаткова інформація:
Роман Когут - яКозак (2010)
про альбом (англ.)
After a recording break, Ron Cahute has released his newest addition to a vast collection of upbeat Ukrainian polka-style music! iKOZAK (Ya Kozak) is a collection of songs about the lives of fearless Kozaks that fought and protected the lands and people of Ukraine. In this recording, you will hear various musical styles in toe-tapping, exciting arrangements! Includes both Ukrainian and English language songs. Great listening!!


Якщо Ви справді бажаєте підтримати українське - після прослуховування, якщо музика вам сподобалась,
придбайте ліцензійний диск.
Підтримаймо вітчизняних виконавців!


Срібний реліз (на рейтинг впливає 50% завантаженого)
 Трекер:    Зареєстрований   

Завантажити / скачати українську музику



відео для новачків



 Зареєстрований:   2016-09-06 22:33
 Розмір:   316 MB 
 Оцінка музики:   1.7/10 (Голосів: 13)
   
ssTAss 
Модератор музики


З нами з: 05.07.08
Востаннє: 08.12.16
Повідомлень: 10947

2016-09-06 22:35  
Ваш часовий пояс: GMT + 2 Години

Нова тема   Відповісти