Завантажити та скачати торренти українською


Холостячки / Bachelorette (2012) 720p Ukr/Eng | Sub Ukr/Eng

Нові коментарі

Нова тема   Відповісти
Автор Повідомлення
Загора 
VIP


З нами з: 15.09.10
Востаннє: 02.12.16
Повідомлень: 282

2016-09-06 15:53  
Холостячки / Bachelorette (2012) 720p Ukr/Eng | Sub Ukr/Eng


Холостячки / Bachelorette (2012) 720p Ukr/Eng | Sub Ukr/Eng
Жанр: комедія
Країна: США



Кінокомпанія: Gary Sanchez Productions
Актори: Кірстен Данст, Айла Фішер, Ліззі Каплан, Ребел Уілсон, Джеймс Марсден, Адам Скотт, Хейс, МакАртур

Сюжет:
Три симпатичні і гострі на язик незаміжні подруги приїжджають на весілля колишньої однокласниці-товстушки і... випадково псують вражаючу своїми розмірами вінчальну сукню нареченої. А завтра їй йти до вівтаря! За одну ніч холостячкам доведеться виконати запаморочливу подорож по стрип-клубах, туалетних кімнатах та чоловічих спальнях задля порятунку весілля тієї, яку вони терпіти не можуть.


Тривалість: 01:27:03
Якість: 720p

Відео:
кодек:
розмір кадру: 1280 х 534 (2.40:1)
бітрейт: 6104 кб/с

Аудіо # 1:
мова: українська
переклад: багатоголосий закадровий | megogo.net
кодек: 2.0
бітрейт: 192 кб/с

Аудіо # 2:
мова: англійська
переклад: оригінал
кодек: 5.1
бітрейт: 448 кб/с

Субтитри:
мова: українська , англійська
тип: програмні (м'які)
формат: *.srt


MediaInfo
General
Unique ID : 225724140564151653834627494181947362257 (0xA9D0E35DB0D4AFD890CC8D6E8E80CBD1)
Complete name : C:\Users\HP\Videos\Bachelorette (2012) 720p [ukr, eng] [Hurtom].mkv
Format : Matroska
Format version : Version 4 / Version 2
File size : 4.09 GiB
Duration : 1 h 27 min
Overall bit rate : 6 728 kb/s
Movie name : Bachelorette (2012)
Encoded date : UTC 2016-09-06 13:06:30
Writing application : mkvmerge v6.9.1 ('Blue Panther') 64bit built on Apr 18 2014 18:23:38
Writing library : libebml v1.3.0 + libmatroska v1.4.1
Cover : Yes
Attachments : cover.jpg

Video
ID : 1
Format : AVC
Format/Info : Advanced Video Codec
Format profile : [email protected]
Format settings, CABAC : Yes
Format settings, ReFrames : 11 frames
Codec ID : V_MPEG4/ISO/AVC
Duration : 1 h 27 min
Bit rate : 6 104 kb/s
Width : 1 280 pixels
Height : 534 pixels
Display aspect ratio : 2.40:1
Frame rate mode : Constant
Frame rate : 24.000 FPS
Color space : YUV
Chroma subsampling : 4:2:0
Bit depth : 8 bits
Scan type : Progressive
Bits/(Pixel*Frame) : 0.372
Stream size : 3.62 GiB (88%)
Title : 720p
Writing library : core 140 r2377 1ca7bb9
Encoding settings : cabac=1 / ref=11 / deblock=1:-3:-3 / analyse=0x3:0x133 / me=umh / subme=11 / psy=1 / psy_rd=1.00:0.00 / mixed_ref=1 / me_range=32 / chroma_me=1 / trellis=2 / 8x8dct=1 / cqm=0 / deadzone=21,11 / fast_pskip=0 / chroma_qp_offset=-2 / threads=12 / lookahead_threads=1 / sliced_threads=0 / nr=0 / decimate=1 / interlaced=0 / bluray_compat=0 / constrained_intra=0 / bframes=6 / b_pyramid=2 / b_adapt=2 / b_bias=0 / direct=3 / weightb=1 / open_gop=0 / weightp=2 / keyint=240 / keyint_min=24 / scenecut=40 / intra_refresh=0 / rc=2pass / mbtree=0 / bitrate=6104 / ratetol=2.0 / qcomp=0.60 / qpmin=0 / qpmax=69 / qpstep=4 / cplxblur=20.0 / qblur=0.5 / ip_ratio=1.40 / pb_ratio=1.30 / aq=1:0.70
Language : English
Default : Yes
Forced : No

Audio #1
ID : 2
Format : AC-3
Format/Info : Audio Coding 3
Mode extension : CM (complete main)
Format settings, Endianness : Big
Codec ID : A_AC3
Duration : 1 h 27 min
Bit rate mode : Constant
Bit rate : 192 kb/s
Channel(s) : 2 channels
Channel positions : Front: L R
Sampling rate : 48.0 kHz
Frame rate : 31.250 FPS (1536 spf)
Compression mode : Lossy
Stream size : 120 MiB (3%)
Language : Ukrainian
Default : Yes
Forced : No

Audio #2
ID : 3
Format : AC-3
Format/Info : Audio Coding 3
Mode extension : CM (complete main)
Format settings, Endianness : Big
Codec ID : A_AC3
Duration : 1 h 27 min
Bit rate mode : Constant
Bit rate : 448 kb/s
Channel(s) : 6 channels
Channel positions : Front: L C R, Side: L R, LFE
Sampling rate : 48.0 kHz
Frame rate : 31.250 FPS (1536 spf)
Compression mode : Lossy
Stream size : 279 MiB (7%)
Language : English
Default : No
Forced : No

Text #1
ID : 4
Format : UTF-8
Codec ID : S_TEXT/UTF8
Codec ID/Info : UTF-8 Plain Text
Language : Ukrainian
Default : No
Forced : No

Text #2
ID : 5
Format : UTF-8
Codec ID : S_TEXT/UTF8
Codec ID/Info : UTF-8 Plain Text
Title : Full
Language : English
Default : No
Forced : No

Text #3
ID : 6
Format : UTF-8
Codec ID : S_TEXT/UTF8
Codec ID/Info : UTF-8 Plain Text
Title : SDH
Language : English
Default : No
Forced : No
Скріншоти
Трейлер

Подяка AngryBirdsUA за українську звукову доріжку

Джерело: &


 Трекер:    Зареєстрований   

Завантажити / скачати фільм українською



відео для новачків



 Зареєстрований:   2016-09-06 16:20
 Розмір:   4.09 GB 
 Оцінка фільму:   8.7/10 (Голосів: 7)
   
Інші релізи
   Холостячки / Bachelorette (2012) AVC Ukr/Eng | Sub Ukr/Eng Загора  3 / 0   1.77 GB   2016-09-06 09:57 
   Холостячки / Bachelorette (2012) 1080p Ukr/Eng | sub Ukr AngryBirdsUA  1 / 0   6.66 GB   2013-02-07 22:35 
   Холостячки / Bachelorette (2012) Ukr/Eng sstonecold1  5 / 0   1.45 GB   2012-11-22 17:40 
Ваш часовий пояс: GMT + 2 Години

Нова тема   Відповісти