Завантажити та скачати торренти українською


Такий самий зрадник, як і ми / Our Kind of Traitor (2016) 1080p Ukr/Eng | Sub Eng

Нові коментарі

Нова тема   Відповісти
Автор Повідомлення
Загора 
VIP


З нами з: 15.09.10
Востаннє: 09.12.16
Повідомлень: 282

2016-09-05 22:35  
Такий самий зрадник, як і ми / Our Kind of Traitor (2016) 1080p Ukr/Eng | Sub Eng


Такий самий зрадник, як і ми / Our Kind of Traitor (2016) 1080p Ukr/Eng | Sub Eng
Жанр: трилер
Країна: Велика Британія, Франція



Кінокомпанія: StudioCanal, Film4, Anton Capital Entertainment (ACE)
Режисер: Сюзанна Вайт
Актори: Юен МакҐреґор, Стеллан Скарсґард, Деміен Льюіс, Наомі Харріс, Карлос Акоста, Радівоє Буквич, Марія Фоміна, Григорій Добригін, Велібор Топіч

Сюжет:
Молодий академік з Оксфорда з подругою відправляються на відпочинок на Антиґуа, де в результаті події випадково знайомляться з російським мільйонером, який носить годинник з діамантами і володіє половиною острова. Він спочатку пропонує їм гру в теніс, а після запрошує в туристичну подорож: спочатку в Лондон, яка обернеться знайомством з британською розвідкою, потім в Париж і Альпи.


Тривалість: 01:47:36
Якість: 1080p

Відео:
кодек:
розмір кадру: 1920 х 808 (2.40:1)
бітрейт: 9412 кб/с

Аудіо # 1:
мова: українська
переклад: багатоголосий закадровий
кодек: 2.0
бітрейт: 192 кб/с

Аудіо # 2:
мова: англійська
переклад: оригінал
кодек: 5.1
бітрейт: 448 кб/с

Субтитри:
мова: англійська
тип: програмні (м'які)
формат: *.srt


MediaInfo
General
Unique ID : 205760367688280739154654071118922346442 (0x9ACC015E9C6843C7A530C4654F3D6FCA)
Complete name : C:\Users\HP\Videos\Our Kind of Traitor (2016) 1080p [ukr, eng] [Hurtom].mkv
Format : Matroska
Format version : Version 4 / Version 2
File size : 7.56 GiB
Duration : 1 h 47 min
Overall bit rate : 10.1 Mb/s
Movie name : Our Kind Of Traitor (2016)
Encoded date : UTC 2016-09-05 09:32:53
Writing application : mkvmerge v6.9.1 ('Blue Panther') 64bit built on Apr 18 2014 18:23:38
Writing library : libebml v1.3.0 + libmatroska v1.4.1
Cover : Yes
Attachments : cover.jpg

Video
ID : 1
Format : AVC
Format/Info : Advanced Video Codec
Format profile : [email protected]
Format settings, CABAC : Yes
Format settings, ReFrames : 5 frames
Codec ID : V_MPEG4/ISO/AVC
Duration : 1 h 47 min
Bit rate : 9 412 kb/s
Width : 1 920 pixels
Height : 808 pixels
Display aspect ratio : 2.40:1
Frame rate mode : Constant
Frame rate : 24.000 FPS
Color space : YUV
Chroma subsampling : 4:2:0
Bit depth : 8 bits
Scan type : Progressive
Bits/(Pixel*Frame) : 0.253
Stream size : 6.93 GiB (92%)
Title : 1080p
Writing library : core 148 r2692 64f4e24
Encoding settings : cabac=1 / ref=5 / deblock=1:0:0 / analyse=0x3:0x133 / me=umh / subme=7 / psy=1 / psy_rd=1.00:0.00 / mixed_ref=1 / me_range=16 / chroma_me=1 / trellis=1 / 8x8dct=1 / cqm=0 / deadzone=21,11 / fast_pskip=0 / chroma_qp_offset=-2 / threads=25 / lookahead_threads=4 / sliced_threads=0 / nr=0 / decimate=1 / interlaced=0 / bluray_compat=0 / constrained_intra=0 / bframes=3 / b_pyramid=2 / b_adapt=1 / b_bias=0 / direct=1 / weightb=1 / open_gop=0 / weightp=2 / keyint=250 / keyint_min=23 / scenecut=40 / intra_refresh=0 / rc_lookahead=40 / rc=2pass / mbtree=1 / bitrate=9412 / ratetol=1.0 / qcomp=0.60 / qpmin=0 / qpmax=69 / qpstep=4 / cplxblur=20.0 / qblur=0.5 / ip_ratio=1.40 / aq=1:1.00
Language : English
Default : Yes
Forced : No

Audio #1
ID : 2
Format : AC-3
Format/Info : Audio Coding 3
Mode extension : CM (complete main)
Format settings, Endianness : Big
Codec ID : A_AC3
Duration : 1 h 47 min
Bit rate mode : Constant
Bit rate : 192 kb/s
Channel(s) : 2 channels
Channel positions : Front: L R
Sampling rate : 48.0 kHz
Frame rate : 31.250 FPS (1536 spf)
Compression mode : Lossy
Stream size : 148 MiB (2%)
Language : Ukrainian
Default : Yes
Forced : No

Audio #2
ID : 3
Format : AC-3
Format/Info : Audio Coding 3
Mode extension : CM (complete main)
Format settings, Endianness : Big
Codec ID : A_AC3
Duration : 1 h 47 min
Bit rate mode : Constant
Bit rate : 448 kb/s
Channel(s) : 6 channels
Channel positions : Front: L C R, Side: L R, LFE
Sampling rate : 48.0 kHz
Frame rate : 31.250 FPS (1536 spf)
Compression mode : Lossy
Stream size : 345 MiB (4%)
Language : English
Default : No
Forced : No

Text
ID : 4
Format : UTF-8
Codec ID : S_TEXT/UTF8
Codec ID/Info : UTF-8 Plain Text
Language : English
Default : No
Forced : No
Скріншоти
Трейлери
Український

Оригінальний

Подяка Gelios за українську звукову доріжку та постер

Джерело: &


 Трекер:    Зареєстрований   

Завантажити / скачати фільм українською



відео для новачків



 Зареєстрований:   2016-09-05 22:35
 Розмір:   7.56 GB 
 Оцінка фільму:   9.3/10 (Голосів: 7)
   
Ваш часовий пояс: GMT + 2 Години

Нова тема   Відповісти