Завантажити та скачати торренти українською


Перший месник: Протистояння / Captain America: Civil War (2016) 1080p 3D [HalfOverUnder] Ukr/Eng | Sub Eng

Нові коментарі

Нова тема   Відповісти
Автор Повідомлення
-VipeR- 
VIP


З нами з: 17.07.08
Востаннє: 06.12.16
Повідомлень: 275

2016-09-05 13:43  
Перший месник: Протистояння / Captain America: Civil War (2016) 1080p 3D [HalfOverUnder] Ukr/Eng | Sub Eng

Перший месник: Протистояння / Captain America: Civil War (2016) 1080p 3D [HalfOverUnder] Ukr/Eng | Sub Eng


Жанр: екшн, пригодницький, фантастика
Країна: США, Німеччина



Кінокомпанія: Marvel Studios, Vita-Ray Dutch Productions (III), Studio Babelsberg
Режисер: Ентоні Руссо, Джо Руссо
Актори: Кріс Еванс, Роберт Дауні-молодший, Скарлетт Йоганссен, Себастьян Стен, Ентоні Макі, Дон Чідл, Джеремі Ренер, Чедвік Боузман, Пол Беттані, Елізабет Олсен, Пол Радд, Емілі ВанКемп, Том Голланд, Даніель Брюль, Френк Ґрілло

Сюжет:
Месники під керівництвом Капітана Америки виявляються учасниками руйнівного інциденту, що має міжнародний масштаб. Ці події змушують уряд замислитися над тим, щоб почати регулювати дії всіх людей з особливими здібностями, ввівши «Акт про реєстрацію супергероїв», змушуючи їх підкорятися ООН. Бачачи в цьому договорі порушення громадянських прав, у що він вірить, Стів Роджерс відкрито повстає проти нового режиму, ведучи за собою групу героїв, що підтримують його думку. У свою чергу, Тоні Старк бачить сенс у новому договорі і стає на чолі героїв, які підтримують його. Все це призводить до неминучого розколу Месників і війні між сторонами. Б'ючись один з одним, Старк і Роджерс не знають про те, що таємничий Барон Земо вже будує свої власні плани, скориставшись розколом найбільших героїв Землі.


Тривалість: 02:27:41
Якість: 1080p 3D [HalfOverUnder] ash61
Відео:
кодек:
розмір кадру: 1920 х 1080
бітрейт: 7702 кб/с

Аудіо # 1:
мова: українська
переклад: професійний дубльований
кодек: 5.1
бітрейт: 1536 кб/с

Аудіо # 2:
мова: українська
переклад: професійний дубльований
кодек: 5.1
бітрейт: 640 кб/с

Аудіо # 3:
мова: англійська
переклад: оригінал
кодек: 5.1
бітрейт: 640 кб/с

Субтитри (Full, SDH):
мова: англійська
тип: програмні (м'які)
формат: *.srt
MediaInfo
Код:
General
Unique ID                      : 222791622649476789165836162279280849172 (0xA79C1B11E71D347AA93D68F8B9B1B114)
Complete name                  : \\Kalushlib\d\3D\Captain America Civil War (2016) 1080p 3D [HalfOverUnder][UKR_ENG] [Hurtom].mkv
Format                         : Matroska
Format version                 : Version 4 / Version 2
File size                      : 11.0 GiB
Duration                       : 2h 27mn
Overall bit rate               : 10.7 Mbps
Movie name                     : Первый мститель: Противостояние / Captain America: Civil War (2016) в 3Д
Encoded date                   : UTC 2016-09-05 11:02:47
Writing application            : mkvmerge v8.8.0 ('Wind at my back') 64bit
Writing library                : libebml v1.3.3 + libmatroska v1.4.4
DURATION                       : 02:27:41.088000000
NUMBER_OF_FRAMES               : 276909
NUMBER_OF_BYTES                : 708887040
_STATISTICS_WRITING_APP        : mkvmerge v8.8.0 ('Wind at my back') 64bit
_STATISTICS_WRITING_DATE_UTC   : 2016-09-05 11:02:47
_STATISTICS_TAGS               : BPS DURATION NUMBER_OF_FRAMES NUMBER_OF_BYTES
Attachment                     : Yes

Video
ID                             : 1
Format                         : AVC
Format/Info                    : Advanced Video Codec
Format profile                 : [email protected]
Format settings, CABAC         : Yes
Format settings, ReFrames      : 4 frames
Codec ID                       : V_MPEG4/ISO/AVC
Duration                       : 2h 27mn
Bit rate                       : 7 702 Kbps
Width                          : 1 920 pixels
Height                         : 1 080 pixels
Display aspect ratio           : 16:9
Frame rate mode                : Constant
Frame rate                     : 23.976 fps
Color space                    : YUV
Chroma subsampling             : 4:2:0
Bit depth                      : 8 bits
Scan type                      : Progressive
Bits/(Pixel*Frame)             : 0.155
Stream size                    : 7.95 GiB (72%)
Title                          : by Ash61
Writing library                : core 146 r2538 121396c
Encoding settings              : cabac=1 / ref=4 / deblock=1:-3:-3 / analyse=0x3:0x113 / me=umh / subme=10 / psy=1 / psy_rd=1.00:0.00 / mixed_ref=1 / me_range=32 / chroma_me=1 / trellis=2 / 8x8dct=1 / cqm=0 / deadzone=21,11 / fast_pskip=1 / chroma_qp_offset=-2 / threads=12 / lookahead_threads=3 / sliced_threads=0 / nr=0 / decimate=1 / interlaced=0 / bluray_compat=0 / constrained_intra=0 / bframes=14 / b_pyramid=2 / b_adapt=2 / b_bias=0 / direct=3 / weightb=1 / open_gop=0 / weightp=2 / keyint=250 / keyint_min=23 / scenecut=40 / intra_refresh=0 / rc_lookahead=60 / rc=crf / mbtree=1 / crf=15.0 / qcomp=0.70 / qpmin=0 / qpmax=69 / qpstep=4 / vbv_maxrate=40000 / vbv_bufsize=30000 / crf_max=0.0 / nal_hrd=none / filler=0 / frame-packing=4 / ip_ratio=1.40 / aq=1:0.70
Language                       : English
Default                        : Yes
Forced                         : No
DURATION                       : 02:27:41.061000000
NUMBER_OF_FRAMES               : 212453
NUMBER_OF_BYTES                : 8764056030
_STATISTICS_WRITING_APP        : mkvmerge v8.8.0 ('Wind at my back') 64bit
_STATISTICS_WRITING_DATE_UTC   : 2016-09-05 11:02:47
_STATISTICS_TAGS               : BPS DURATION NUMBER_OF_FRAMES NUMBER_OF_BYTES

Audio #1
ID                             : 2
Format                         :
Format/Info                    : Digital Theater Systems
Mode                           : 16
Format settings, Endianness    : Big
Codec ID                       : A_DTS
Duration                       : 2h 27mn
Bit rate mode                  : Constant
Bit rate                       : 1 509 Kbps
Channel count                  : 6 channels
Channel positions              : Front: L C R, Side: L R, LFE
Sampling rate                  : 48.0 KHz
Bit depth                      : 24 bits
Compression mode               : Lossy
Stream size                    : 1.56 GiB (14%)
Title                          : 5.1 @ 1536 kbps
Language                       : Ukrainian
Default                        : Yes
Forced                         : No

Audio #2
ID                             : 3
Format                         : AC-3
Format/Info                    : Audio Coding 3
Mode extension                 : CM (complete main)
Format settings, Endianness    : Big
Codec ID                       : A_AC3
Duration                       : 2h 27mn
Bit rate mode                  : Constant
Bit rate                       : 640 Kbps
Channel count                  : 6 channels
Channel positions              : Front: L C R, Side: L R, LFE
Sampling rate                  : 48.0 KHz
Bit depth                      : 16 bits
Compression mode               : Lossy
Stream size                    : 676 MiB (6%)
Title                          : Дубляж - Disney / Buena Vista
Language                       : Ukrainian
Default                        : No
Forced                         : No

Audio #3
ID                             : 4
Format                         : AC-3
Format/Info                    : Audio Coding 3
Mode extension                 : CM (complete main)
Format settings, Endianness    : Big
Codec ID                       : A_AC3
Duration                       : 2h 27mn
Bit rate mode                  : Constant
Bit rate                       : 640 Kbps
Channel count                  : 6 channels
Channel positions              : Front: L C R, Side: L R, LFE
Sampling rate                  : 48.0 KHz
Bit depth                      : 16 bits
Compression mode               : Lossy
Stream size                    : 676 MiB (6%)
Title                          : Original
Language                       : English
Default                        : No
Forced                         : No

Text #1
ID                             : 5
Format                         : UTF-8
Codec ID                       : S_TEXT/UTF8
Codec ID/Info                  : UTF-8 Plain Text
Title                          : Full
Language                       : English
Default                        : No
Forced                         : No

Text #2
ID                             : 6
Format                         : UTF-8
Codec ID                       : S_TEXT/UTF8
Codec ID/Info                  : UTF-8 Plain Text
Title                          : SDH
Language                       : English
Default                        : No
Forced                         : No

Menu
00:00:00.000                   : : 1
00:09:01.957                   : : 2
00:13:04.991                   : : 3
00:21:03.345                   : : 4
00:27:53.380                   : : 5
00:31:57.289                   : : 6
00:35:08.396                   : : 7
00:42:58.449                   : : 8
00:52:04.621                   : : 9
01:05:39.101                   : : 10
01:16:41.637                   : : 11
01:22:28.777                   : : 12
01:29:29.488                   : : 13
01:34:09.769                   : : 14
01:45:38.582                   : : 15
01:55:54.322                   : : 16
02:02:35.055                   : : 17
02:12:14.176                   : : 18
02:18:29.384                   : : 19
Скріншоти
Джерело: &
Особиста оцінка: 10 - без зайвих вагань рекомендую всім!

Відео для перегляду на 3D обладнанні!


 Трекер:    Зареєстрований   

Завантажити / скачати фільм українською



відео для новачків



 Зареєстрований:   2016-09-05 13:43
 Розмір:   11.04 GB 
 Оцінка фільму:   9.8/10 (Голосів: 8)
   
Lindenbrok 
Новенький


З нами з: 06.06.14
Востаннє: 05.12.16
Повідомлень: 20

2016-09-05 17:56  
Дякую за АС3
His_Infernal_Majesty 
Новенький


З нами з: 01.12.14
Востаннє: 06.12.16
Повідомлень: 12

2016-09-05 20:08  
Дякую за 3D!
poluvaniyk-a-s 
Новенький


З нами з: 10.03.12
Востаннє: 05.12.16
Повідомлень: 9

2016-09-05 20:41  
дякую за 3D і за версію де битва в IMAX) ще би хтось 60 кадрів замутив - була б пєсня
Ваш часовий пояс: GMT + 2 Години

Нова тема   Відповісти