Завантажити та скачати торренти українською


Щелепи 2 / Jaws 2 (1978) Ukr/Eng | Sub Ukr/Eng

Нові коментарі

Нова тема   Відповісти
Автор Повідомлення
Anonymous 







2016-09-05 11:17  
Щелепи 2 / Jaws 2 (1978) Ukr/Eng | Sub Ukr/Eng

Щелепи 2 / Jaws 2 (1978) Ukr/Eng | Sub Ukr/Eng


Жанр: жахи, трилер, пригодницький
Країна: США



Кінокомпанія: Universal Pictures
Режисер: Жанно Шварц / Jeannot Szwarc
Актори: Рой Шайдер / Roy Scheider, Лоррейн Гері / Lorraine Gary, Мюррей Гамільтон / Murray Hamilton, Коллін Вілкокс / Collin Wilcox, Джеффрі Креймер / Jeffrey Kramer, Джозеф Масколо / Joseph Mascolo та інші

Сюжет:
Акула-вбивця, що кілька років тому тероризувала узбережжя курортного містечка Еміті, повернулася! Гігантський хижак знову почав своє криваве полювання. Ризикуючи життям, шеф поліції морського парку Мартін Броді вступає в боротьбу з чудовиськом, чий голод тепер у стократ сильніше!


Рейтинг MPAA: PG - рекомендується присутність батьків
Вікова категорія: 16+

Тривалість: 01:56:15
Якість:
Відео:
кодек: build 65
розмір кадру: 720x304
бітрейт: 2106 Кбіт/с

Аудіо # 1:
мова: українська
переклад: багатоголосий закадровий | Так Треба Продакшн
ролі озвучили: Володимир Терещук, Анатолій Пашнін, Олена Яблучна і Людмила Чиншева
кодек: 2.0
бітрейт: 192 Кбіт/с

Аудіо # 2:
мова: англійська
переклад: оригінал
кодек: 2.0
бітрейт: 192 Кбіт/с

Субтитри # 1:
мова: українська (завантажити)
тип: програмні (м'які)
формат: *.srt
примітка: переклад з російської, відкориговані мною (igor911)

Субтитри # 2:
мова: англійська (завантажити)
тип: програмні (м'які)
формат: *.srt
MediaInfo
Код:
General
Complete name               : Jaws 2 (1978) [Ukr,Eng] [Hurtom].avi
Format                      : AVI
Format/Info                 : Audio Video Interleave
Format profile              : OpenDML
File size                   : 2.02 GiB
Duration                    : 1 h 56 min
Overall bit rate            : 2 492 kb/s
Movie name                  : Щелепи 2 / Jaws 2 (1978)
Director                    : sociolog_melvas & igor911
Genre                       : жахи, трилер, пригодницький
Writing application         : VirtualDubModRus 1.5.10.2 (build 2540/release)
Writing library             : VirtualDubMod build 2540/release
Copyright                   : HQClub & Hurtom
Comment                     : 05.09.2016

Video
ID                          : 0
Format                      : MPEG-4 Visual
Format profile              : Advanced [email protected]
Format settings, BVOP       : 1
Format settings, QPel       : No
Format settings, GMC        : No warppoints
Format settings, Matrix     : Custom
Codec ID                    :
Codec ID/Hint               :
Duration                    : 1 h 56 min
Bit rate                    : 2 089 kb/s
Width                       : 720 pixels
Height                      : 304 pixels
Display aspect ratio        : 2.35:1
Frame rate                  : 23.976 (24000/1001) FPS
Color space                 : YUV
Chroma subsampling          : 4:2:0
Bit depth                   : 8 bits
Scan type                   : Progressive
Compression mode            : Lossy
Bits/(Pixel*Frame)          : 0.398
Stream size                 : 1.70 GiB (84%)
Writing library             : 65

Audio #1
ID                          : 1
Format                      : AC-3
Format/Info                 : Audio Coding 3
Mode extension              : CM (complete main)
Format settings, Endianness : Big
Codec ID                    : 2000
Duration                    : 1 h 56 min
Bit rate mode               : Constant
Bit rate                    : 192 kb/s
Channel(s)                  : 2 channels
Channel positions           : Front: L R
Sampling rate               : 48.0 kHz
Frame rate                  : 31.250 FPS (1536 spf)
Compression mode            : Lossy
Stream size                 : 160 MiB (8%)
Alignment                   : Split accross interleaves
Interleave, duration        : 42  ms (1.00 video frame)
Interleave, preload duratio : 500  ms
Title                       : Ukr MVO [Ukraina]

Audio #2
ID                          : 2
Format                      : AC-3
Format/Info                 : Audio Coding 3
Mode extension              : CM (complete main)
Format settings, Endianness : Big
Codec ID                    : 2000
Duration                    : 1 h 56 min
Bit rate mode               : Constant
Bit rate                    : 192 kb/s
Channel(s)                  : 2 channels
Channel positions           : Front: L R
Sampling rate               : 48.0 kHz
Frame rate                  : 31.250 FPS (1536 spf)
Compression mode            : Lossy
Stream size                 : 160 MiB (8%)
Alignment                   : Split accross interleaves
Interleave, duration        : 42  ms (1.00 video frame)
Interleave, preload duratio : 500  ms
Title                       : Original




Джерела: &
Подяка п._oles за зведення та субтитри, а п.karvai0 за запис з ТБ.


Срібний реліз (на рейтинг впливає 50% завантаженого)
 Трекер:    Зареєстрований   

Завантажити / скачати фільм українською



відео для новачків



 Зареєстрований:   2016-09-05 11:17
 Розмір:   2.02 GB 
 Оцінка фільму:   4.9/10 (Голосів: 19)
   
Інші релізи
   Щелепи 2 / Jaws 2 (1978) 720p Ukr/Eng | Sub Ukr/Eng igor911  1 / 0   8.69 GB   2016-09-05 09:48 
boroznaya 
VIP


З нами з: 02.11.12
Востаннє: 03.12.16
Повідомлень: 1868

2016-10-16 16:34  
До першої частини, звичайно далеко, але є потреба у перегляді.
Ваш часовий пояс: GMT + 2 Години

Нова тема   Відповісти