Завантажити та скачати торренти українською


Щелепи 2 / Jaws 2 (1978) 720p Ukr/Eng | Sub Ukr/Eng

Нові коментарі

Нова тема   Відповісти
Автор Повідомлення
Anonymous 







2016-09-05 09:48  
Щелепи 2 / Jaws 2 (1978) 720p Ukr/Eng | Sub Ukr/Eng

Щелепи 2 / Jaws 2 (1978) 720p Ukr/Eng | Sub Ukr/Eng


Жанр: жахи, трилер, пригодницький
Країна: США



Кінокомпанія: Universal Pictures
Режисер: Жанно Шварц / Jeannot Szwarc
Актори: Рой Шайдер / Roy Scheider, Лоррейн Гері / Lorraine Gary, Мюррей Гамільтон / Murray Hamilton, Коллін Вілкокс / Collin Wilcox, Джеффрі Креймер / Jeffrey Kramer, Джозеф Масколо / Joseph Mascolo та інші

Сюжет:
Акула-вбивця, що кілька років тому тероризувала узбережжя курортного містечка Еміті, повернулася! Гігантський хижак знову почав своє криваве полювання. Ризикуючи життям, шеф поліції морського парку Мартін Броді вступає в боротьбу з чудовиськом, чий голод тепер у стократ сильніше!


Рейтинг MPAA: PG - рекомендується присутність батьків
Вікова категорія: 16+

Тривалість: 01:56:15
Якість: 720p [SbR]
Відео:
кодек:
розмір кадру: 1280 х 546
бітрейт: 9826 Кбіт/с [crf=17.5]

Аудіо # 1:
мова: українська
переклад: багатоголосий закадровий | Так Треба Продакшн
ролі озвучили: Володимир Терещук, Анатолій Пашнін, Олена Яблучна і Людмила Чиншева
кодек: 2.0
бітрейт: 192 Кбіт/с

Аудіо # 2:
мова: англійська
переклад: оригінал
кодек: FLAC
бітрейт: 679 Кбіт/с

Субтитри # 1:
мова: українська
тип: програмні (м'які)
формат: *.srt
примітка: переклад з російської, мною (igor911) відкориговані

Субтитри # 2:
мова: англійська
тип: програмні (м'які)
формат: *.srt

Збережено оригінальні розділи, як на Blu-ray.
MediaInfo та log
Код:
Complete name               : Jaws 2 (1978) [Ukr,Eng sub.Ukr,Eng] 720p [Hurtom].mkv
Format                      : Matroska
Format version              : Version 4 / Version 2
File size                   : 8.69 GiB
Duration                    : 1 h 56 min
Overall bit rate mode       : Variable
Overall bit rate            : 10.7 Mb/s
Movie name                  : Щелепи 2 / Jaws 2 (1978) [Ukr,Eng sub.Ukr,Eng] 720p [Hurtom]
Writing library             : libebml v1.3.4 + libmatroska v1.4.5
Cover                       : Yes
Attachments                 : cover.jpg / xlog.txt

Video
ID                          : 1
Format                      : AVC
Format/Info                 : Advanced Video Codec
Format profile              : [email protected]
Format settings, CABAC      : Yes
Format settings, ReFrames   : 11 frames
Codec ID                    : V_MPEG4/ISO/AVC
Duration                    : 1 h 56 min
Bit rate                    : 9 826 kb/s
Width                       : 1 280 pixels
Height                      : 546 pixels
Display aspect ratio        : 2.35:1
Frame rate mode             : Constant
Frame rate                  : 23.976 (24000/1001) FPS
Color space                 : YUV
Chroma subsampling          : 4:2:0
Bit depth                   : 8 bits
Scan type                   : Progressive
Bits/(Pixel*Frame)          : 0.586
Stream size                 : 7.98 GiB (92%)
Title                       : Щелепи 2 / Jaws 2 (1978) 720p [SbR]
Writing library             : core 148 r2692kMod 64f4e24
Encoding settings           : cabac=1 / ref=11 / deblock=1:-2:-2 / analyse=0x3:0x133 / me=umh / subme=11 / psy=1 / fade_compensate=0.00 / psy_rd=1.00:0.00 / mixed_ref=1 / me_range=32 / chroma_me=1 / trellis=2 / 8x8dct=1 / cqm=0 / deadzone=21,11 / fast_pskip=1 / chroma_qp_offset=-2 / threads=12 / lookahead_threads=3 / sliced_threads=0 / nr=0 / decimate=1 / interlaced=0 / bluray_compat=0 / constrained_intra=0 / fgo=0 / bframes=10 / b_pyramid=2 / b_adapt=2 / b_bias=0 / direct=1 / weightb=1 / open_gop=0 / weightp=2 / keyint=250 / keyint_min=23 / scenecut=40 / intra_refresh=0 / rc_lookahead=60 / rc=crf / mbtree=0 / crf=17.5000 / qcomp=0.60 / qpmin=0 / qpmax=69 / qpstep=4 / vbv_maxrate=62500 / vbv_bufsize=78125 / crf_max=0.0 / nal_hrd=none / filler=0 / ip_ratio=1.20 / pb_ratio=1.20 / aq=1:0.80
Language                    : English
Default                     : Yes
Forced                      : No
Color range                 : Limited
Color primaries             : BT.709
Transfer characteristics    : BT.709
Matrix coefficients         : BT.709

Audio #1
ID                          : 2
Format                      : AC-3
Format/Info                 : Audio Coding 3
Mode extension              : CM (complete main)
Format settings, Endianness : Big
Codec ID                    : A_AC3
Duration                    : 1 h 56 min
Bit rate mode               : Constant
Bit rate                    : 192 kb/s
Channel(s)                  : 2 channels
Channel positions           : Front: L R
Sampling rate               : 48.0 kHz
Frame rate                  : 31.250 FPS (1536 spf)
Compression mode            : Lossy
Stream size                 : 160 MiB (2%)
Title                       : MVO [Ukraina] 2.0 192 kbps [Hurom-_oles,karvai0]
Language                    : Ukrainian
Default                     : Yes
Forced                      : No

Audio #2
ID                          : 3
Format                      : FLAC
Format/Info                 : Free Lossless Audio Codec
Codec ID                    : A_FLAC
Duration                    : 1 h 56 min
Bit rate mode               : Variable
Bit rate                    : 679 kb/s
Channel(s)                  : 2 channels
Channel positions           : Front: L R
Sampling rate               : 48.0 kHz
Frame rate                  : 11.719 FPS (4096 spf)
Bit depth                   : 24 bits
Stream size                 : 565 MiB (6%)
Title                       : Original , FLAC 2.0 679 kbps
Writing library             : libFLAC 1.2.1 (UTC 2007-09-17)
Language                    : English
Default                     : No
Forced                      : No

Text #1
ID                          : 4
Format                      : UTF-8
Codec ID                    : S_TEXT/UTF8
Codec ID/Info               : UTF-8 Plain Text
Duration                    : 1 h 53 min
Bit rate                    : 67 b/s
Count of elements           : 877
Stream size                 : 55.7 KiB (0%)
Title                       : Ukr full [Hurtom-_oles]
Language                    : Ukrainian
Default                     : No
Forced                      : No

Text #2
ID                          : 5
Format                      : UTF-8
Codec ID                    : S_TEXT/UTF8
Codec ID/Info               : UTF-8 Plain Text
Duration                    : 1 h 50 min
Bit rate                    : 46 b/s
Count of elements           : 1362
Stream size                 : 37.8 KiB (0%)
Title                       : Eng full
Language                    : English
Default                     : No
Forced                      : No

Menu
00:00:00.000                : en:Main Titles
00:02:05.125                : en:A Picture Of Death
00:04:50.038                : en:The Grand Opening Ball
00:12:29.455                : en:Michael & His Friends
00:18:15.969                : en:A "Boating Accident"
00:27:26.809                : en:The Killer Whale
00:34:28.023                : en:Death Washes Ashore
00:41:00.791                : en:Looking For Sharks
00:56:59.873                : en:Fired
01:01:30.518                : en:Sneaking Out
01:11:55.225                : en:Tina's Terror
01:16:27.872                : en:Going After Michael
01:22:33.198                : en:Shark Attack
01:29:46.506                : en:Pilot Terror
01:41:16.904                : en:The Island
01:43:14.395                : en:Brody To The Rescue
01:48:01.515                : en:The Shark's Big Shock
01:53:29.719                : en:End Titles

Код:
raw [info]: 1280x546p 1:1 @ 24000/1001 fps (cfr)
[info]: using SAR=1/1
[info]: using cpu capabilities: MMX2 SSE2Fast SSSE3 SSE4.2 AVX
[info]: profile High, level 4.1
[info]: frame I:968   Avg QP:19.02  size: 99080
[info]: frame P:34765 Avg QP:19.59  size: 69237
[info]: frame B:131511 Avg QP:21.00  size: 46114
[info]: consecutive B-frames:  1.2%  1.6%  5.8% 23.4% 14.8% 46.9%  3.2%  1.2%  0.6%  0.8%  0.5%
[info]: mb I  I16..4:  0.9% 90.0%  9.0%
[info]: mb P  I16..4:  0.1% 37.6%  2.5%  P16..4: 18.8% 26.4% 12.9%  1.3%  0.0%    skip: 0.3%
[info]: mb B  I16..4:  0.0% 13.0%  0.6%  B16..8: 36.4% 24.7%  7.3%  direct:10.2%  skip: 7.8%  L0:46.3% L1:39.8% BI:13.9%
[info]: 8x8 transform intra:94.5% inter:66.1%
[info]: coded y,uvDC,uvAC intra: 98.1% 86.4% 59.9% inter: 70.3% 45.7% 4.5%
[info]: i16 v,h,dc,p: 24% 18%  4% 54%
[info]: i8 v,h,dc,ddl,ddr,vr,hd,vl,hu:  7%  9% 13% 10% 13% 11% 14% 10% 14%
[info]: i4 v,h,dc,ddl,ddr,vr,hd,vl,hu: 30%  7%  3%  6% 11% 10% 13%  8% 12%
[info]: i8c dc,h,v,p: 38% 30% 16% 15%
[info]: Weighted P-Frames: Y:8.9% UV:5.6%
[info]: ref P L0: 36.7% 12.4% 16.8%  8.1%  6.5%  5.0%  4.4%  2.8%  2.6%  2.3%  2.3%  0.2%  0.0%
[info]: ref B L0: 69.6% 11.2%  6.3%  3.5%  2.7%  2.3%  1.9%  1.3%  0.8%  0.4%
[info]: ref B L1: 94.2%  5.8%
[info]: kb/s:9825.84

encoded 167244 frames, 5.56 fps, 9825.84 kb/s, duration 8:21:20.04
Ріп <-------------> Оригінал








Джерела: &
Подяка п._oles за зведення та субтитри, а п.karvai0 за запис з ТБ.


Срібний реліз (на рейтинг впливає 50% завантаженого)
 Трекер:    Зареєстрований   

Завантажити / скачати фільм українською



відео для новачків



 Зареєстрований:   2016-09-05 09:48
 Розмір:   8.69 GB 
 Оцінка фільму:   3.9/10 (Голосів: 15)
   
Інші релізи
   Щелепи 2 / Jaws 2 (1978) Ukr/Eng | Sub Ukr/Eng igor911  3 / 0   2.02 GB   2016-09-05 11:17 
Ваш часовий пояс: GMT + 2 Години

Нова тема   Відповісти