Завантажити та скачати торренти українською


Цвяшок (2016) HD 1080p

Нові коментарі

Нова тема   Відповісти
Автор Повідомлення
Islet3D 
Новенький


З нами з: 24.08.16
Востаннє: 22.11.16
Повідомлень: 3

2016-09-03 16:19  
Цвяшок (2016) HD 1080p

Цвяшок (2016) HD 1080p


Жанр: анімація, дитячи, казка, навчальна
Країна: Україна

Студія: Islet3D
Режисер: Собко Любомир, Маковецький Тимовій.
Актори: Собко Любомир, Маковецький Тимовій, Маковецький Володимир, Маковецька Олена, Бутрик Давид.

Сюжет:
Історія про цвяшка який вважав що він не потрібен в будівлі...


Опис:
Перший мультфільм нашої теперішньої команди, на якому ми навчались технологій 3D.


Тривалість: 00:03:21
Відео:
кодек:
розмір кадру: 1920 x 1080
бітрейт: 30.5 Mbps

Аудіо:
мова: українська
переклад: оригінал
кодек: 2.0
бітрейт: 192 Kbps

Субтитри:
мова: українська, Російська
тип: програмні (Різнокольорові)
формат: *.ASS
Скріншоти


MediaInfo
General
Unique ID : 230980485632101061911949177085684119133 (0xADC5392FBEFD2A0599E0508F0B20765D)
Complete name : C:\Users\Islet\Videos\tsvyashok.mkv
Format : Matroska
Format version : Version 4 / Version 2
File size : 737 MiB
Duration : 3mn 21s
Overall bit rate : 30.7 Mbps
Encoded date : UTC 2016-08-27 18:08:09
Writing application : mkvmerge v9.4.0 ('Knurl') 64bit
Writing library : libebml v1.3.4 + libmatroska v1.4.5

Video
ID : 1
Format : AVC
Format/Info : Advanced Video Codec
Format profile : [email protected]
Format settings, CABAC : Yes
Format settings, ReFrames : 3 frames
Codec ID : V_MPEG4/ISO/AVC
Duration : 3mn 21s
Bit rate : 30.5 Mbps
Width : 1 920 pixels
Height : 1 080 pixels
Display aspect ratio : 16:9
Frame rate mode : Constant
Frame rate : 29.970 (30000/1001) fps
Standard : NTSC
Color space : YUV
Chroma subsampling : 4:2:0
Bit depth : 8 bits
Scan type : Progressive
Bits/(Pixel*Frame) : 0.491
Stream size : 733 MiB (99%)
Title : цвяшок
Language : Ukrainian
Default : Yes
Forced : No
Color range : Limited
Color primaries : BT.709
Transfer characteristics : BT.709
Matrix coefficients : BT.709

Audio
ID : 2
Format :
Format/Info : Advanced Audio Codec
Format profile : LC
Codec ID : A_AAC
Duration : 3mn 21s
Bit rate : 192 Kbps
Channel(s) : 2 channels
Channel positions : Front: L R
Sampling rate : 48.0 KHz
Frame rate : 46.875 fps (1024 spf)
Compression mode : Lossy
Stream size : 4.55 MiB (1%)
Title : українська_UA
Language : Ukrainian
Default : Yes
Forced : No

Text #1
ID : 3
Format : ASS
Codec ID : S_TEXT/ASS
Codec ID/Info : Advanced Sub Station Alpha
Duration : 2mn 47s
Bit rate : 188 bps
Count of elements : 33
Compression mode : Lossless
Stream size : 3.84 KiB (0%)
Title : українська_UA
Language : Ukrainian
Default : Yes
Forced : No

Text #2
ID : 4
Format : ASS
Codec ID : S_TEXT/ASS
Codec ID/Info : Advanced Sub Station Alpha
Duration : 2mn 46s
Bit rate : 171 bps
Count of elements : 28
Compression mode : Lossless
Stream size : 3.50 KiB (0%)
Title : русский_RU
Language : Russian
Default : No
Forced : No
Особиста оцінка: 10 - без зайвих вагань рекомендую всім!


Золотий реліз (завантажене не впливає на рейтинг)
 Трекер:    Зареєстрований   

Завантажити / скачати український мультфільм



відео для новачків



 Зареєстрований:   2016-09-03 16:19
 Розмір:   737 MB 
 Оцінка мультфільму:   9.5/10 (Голосів: 19)
 історія про цвяшка
   
Едм 
VIP


З нами з: 18.05.08
Востаннє: 09.12.16
Повідомлень: 1209

2016-09-03 19:27  
Звертає увагу на себе ехо ефект озвучення, по сюжету це ж не актовий зал
Electroz 
Свій


З нами з: 18.09.14
Востаннє: 10.12.16
Повідомлень: 139

2016-09-04 00:32  
Чому назва мультфільму з маленької букви?
11FrYkT 
Модератор відео


З нами з: 20.02.11
Востаннє: 10.12.16
Повідомлень: 3139

2016-09-04 14:13  
Islet3D 
Новенький


З нами з: 24.08.16
Востаннє: 22.11.16
Повідомлень: 3

2016-09-05 13:45  
11FrYkT
Начебто поправив, але якщо ще щось не так будь-ласка напишіть що, так як я можу не помітити помилку. Дякую.

Electroz
Виправив, дякую.

Едм
Так ми добавили ефекти, щоб вийшов типу залізний голос, цеж цвяшки.

11FrYkT 
Модератор відео


З нами з: 20.02.11
Востаннє: 10.12.16
Повідомлень: 3139

2016-09-05 15:52  
Islet3D ,
Цитата:
Цвяшок (2016) оригінал full HD Короткометражка

тут просто вкажіть якість відео
вкажіть бітрейт аудіо
+ додайте медіаінфо що звірити бітрейти

pvm 
Свій


З нами з: 05.03.10
Востаннє: 09.12.16
Повідомлень: 138

2016-09-16 12:57  
Жанр: анімація, дитячиf, казка, навчальниа
igor911 
Відео Гуртом
Відео Гуртом


З нами з: 18.01.08
Востаннє: 10.12.16
Повідомлень: 5213

2016-10-19 09:22  
переглянути онлайн:

knuzich 
Новенький


З нами з: 16.11.16
Востаннє: 10.12.16
Повідомлень: 1

2016-11-16 18:21  
все жах
[Captain] 
VIP


З нами з: 18.02.12
Востаннє: 10.12.16
Повідомлень: 1402

2016-11-17 15:27  
knuzich
а як на мене то прикольно.

Ваш часовий пояс: GMT + 2 Години

Нова тема   Відповісти