XXXI Літні Олімпійскі ігри в Ріо-де-Жанейро - Церемонія відкриття (05.08.2016) 720p 50fps | Ukr/Eng/Deu/Int

Нові коментарі

Нова тема   Відповісти
Останній раз роздавалося elektryk125 (2017-01-22)
Автор Повідомлення
sergiyko.5 
VIP


З нами з: 25.02.16
Востаннє: 22.01.17
Повідомлень: 578

2016-09-03 11:08  
XXXI Літні Олімпійскі ігри в Ріо-де-Жанейро - Церемонія відкриття (05.08.2016) 720p 50fps


XXXI Літні Олімпійскі ігри в Ріо-де-Жанейро - Церемонія відкриття (05.08.2016) 720p 50fps | Ukr/Eng/Deu/Int

Опис:
У Ріо-де-Жанейро на знаменитому стадіоні "Маракана" увечері в п'ятницю, 5 серпня 2016 року, відбулась урочиста церемонія відкриття XXXI літніх Олімпійських ігор. На ній були присутні глави держав і урядів 37 країн, за перебігом свята спостерігало 80 тисяч глядачів на стадіоні, а також телеглядачі по всьому світу. Про офіційне відкриття першої Олімпіади оголосив виконувач обов'язків президента Бразилії Мішел Темер.

У барвистому шоу в символічній формі розповідалася історія Бразилії від моменту висадки португальських колоністів до наших днів. Як зазначає Reuters, церемонія була досить простою з точки зору технічного забезпечення, що пояснюється складним економічним періодом, який зараз переживає Бразилія.

Олімпійський вогонь запалив колишній бразильський марафонець Вандерлей де Ліма.

Олімпійські ігри 2016 року пройшли в Ріо-де-Жанейро з 5 по 21 серпня. У змаганнях взяли участь понад 11 тисяч атлетів з понад 200 країн, які представляли 28 видів спорту.


Тривалість: 04:00:01
Якість:

Відео: кодек: розмір кадру: 1280 х 720 бітрейт: 8358 кб/с
Аудіо #1: мова: українська переклад: двоголосий закадровий кодек: 2.0 бітрейт: 192 кб/с | Перший Національний |
Аудіо #2: мова: українська переклад: двоголосий закадровий кодек: 5.1 бітрейт: 448 кб/с | Перший Національний |
Аудіо #3: мова: англійська переклад: двоголосий закадровий кодек: 2.0 бітрейт: 320 кб/с | BBC Sport |
Аудіо #4: мова: німецька переклад: двоголосий закадровий кодек: 2.0 бітрейт: 384 кб/с | ARD/ZDF |
Аудіо #5: мова: звуки церемонії переклад: оригінал кодек: 2.0 бітрейт: 384 кб/с
Аудіо #6: мова: звуки церемонії переклад: оригінал кодек: 5.1 бітрейт: 640 кб/с

Додаткова інформація:
Вхідний файл: запис Live трансляції HDTVRemux 35Гб [TS//, 1920х1080i (16:9), 25.000 fps]
Ріп: деінтерлейсер [25i -> 50p]: QTGMC( Preset="Slow" )
Інформація про файл:
General
Unique ID : 246290778177495528070640629684088658839 (0xB949E0E387EE9CA7BD6244B9D704DB97)
Complete name : E:\Torrents\Video\XXXI Літні Олімпійскі ігри.Церемонія відкриття.05-08-2016..720p.50fps.MultiLang.mkv
Format : Matroska
Format version : Version 4 / Version 2
File size : 18.3 GiB
Duration : 4 h 0 min
Overall bit rate : 10.9 Mb/s
Movie name : Olympics 2016 Opening Ceremony by sergiyko
Encoded date : UTC 2016-09-03 09:46:05
Writing application : mkvmerge v9.4.0 ('Knurl') 64bit
Writing library : libebml v1.3.4 + libmatroska v1.4.5

Video
ID : 1
Format : AVC
Format/Info : Advanced Video Codec
Format profile : [email protected]
Format settings, CABAC : Yes
Format settings, ReFrames : 8 frames
Codec ID : V_MPEG4/ISO/AVC
Duration : 4 h 0 min
Bit rate : 8 527 kb/s
Width : 1 280 pixels
Height : 720 pixels
Display aspect ratio : 16:9
Frame rate mode : Constant
Frame rate : 50.000 FPS
Color space : YUV
Chroma subsampling : 4:2:0
Bit depth : 8 bits
Scan type : Progressive
Bits/(Pixel*Frame) : 0.185
Stream size : 14.3 GiB (78%)
Title : Olympics 2016 Opening Ceremony by sergiyko
Language : English
Default : Yes
Forced : No

Audio #1
ID : 2
Format : AC-3
Format/Info : Audio Coding 3
Mode extension : CM (complete main)
Format settings, Endianness : Big
Codec ID : A_AC3
Duration : 4 h 0 min
Bit rate mode : Constant
Bit rate : 192 kb/s
Channel(s) : 2 channels
Channel positions : Front: L R
Sampling rate : 48.0 kHz
Frame rate : 31.250 FPS (1536 spf)
Compression mode : Lossy
Delay relative to video : -200 ms
Stream size : 330 MiB (2%)
Title : 2.0ch 192kbps | Перший Національний
Language : Ukrainian
Default : Yes
Forced : Yes

Audio #2
ID : 3
Format : AC-3
Format/Info : Audio Coding 3
Mode extension : CM (complete main)
Format settings, Endianness : Big
Codec ID : A_AC3
Duration : 4 h 0 min
Bit rate mode : Constant
Bit rate : 448 kb/s
Channel(s) : 6 channels
Channel positions : Front: L C R, Side: L R, LFE
Sampling rate : 48.0 kHz
Frame rate : 31.250 FPS (1536 spf)
Compression mode : Lossy
Delay relative to video : -200 ms
Stream size : 769 MiB (4%)
Title : 5.1ch 448kbps | Перший Національний
Language : Ukrainian
Default : No
Forced : No

Audio #3
ID : 4
Format : AC-3
Format/Info : Audio Coding 3
Mode extension : CM (complete main)
Format settings, Endianness : Big
Codec ID : A_AC3
Duration : 4 h 0 min
Bit rate mode : Constant
Bit rate : 320 kb/s
Channel(s) : 2 channels
Channel positions : Front: L R
Sampling rate : 48.0 kHz
Frame rate : 31.250 FPS (1536 spf)
Compression mode : Lossy
Delay relative to video : -200 ms
Stream size : 549 MiB (3%)
Title : BBC Sport
Language : English
Default : No
Forced : No

Audio #4
ID : 5
Format : AC-3
Format/Info : Audio Coding 3
Mode extension : CM (complete main)
Format settings, Endianness : Big
Codec ID : A_AC3
Duration : 4 h 0 min
Bit rate mode : Constant
Bit rate : 384 kb/s
Channel(s) : 2 channels
Channel positions : Front: L R
Sampling rate : 48.0 kHz
Frame rate : 31.250 FPS (1536 spf)
Compression mode : Lossy
Delay relative to video : -200 ms
Stream size : 659 MiB (4%)
Title : ARD/ZDF
Language : German
Default : No
Forced : No

Audio #5
ID : 6
Format : AC-3
Format/Info : Audio Coding 3
Mode extension : CM (complete main)
Format settings, Endianness : Big
Codec ID : A_AC3
Duration : 4 h 0 min
Bit rate mode : Constant
Bit rate : 384 kb/s
Channel(s) : 2 channels
Channel positions : Front: L R
Sampling rate : 48.0 kHz
Frame rate : 31.250 FPS (1536 spf)
Compression mode : Lossy
Delay relative to video : -200 ms
Stream size : 659 MiB (4%)
Title : Natural Sounds 2ch
Default : No
Forced : No

Audio #6
ID : 7
Format : AC-3
Format/Info : Audio Coding 3
Mode extension : CM (complete main)
Format settings, Endianness : Big
Codec ID : A_AC3
Duration : 4 h 0 min
Bit rate mode : Constant
Bit rate : 640 kb/s
Channel(s) : 6 channels
Channel positions : Front: L C R, Side: L R, LFE
Sampling rate : 48.0 kHz
Frame rate : 31.250 FPS (1536 spf)
Compression mode : Lossy
Delay relative to video : -200 ms
Stream size : 1.07 GiB (6%)
Title : Natural Sounds 6ch
Default : No
Forced : No

Menu
00:09:39.000 : :Розділ 01
00:30:50.000 : :Розділ 02
00:53:54.000 : :Розділ 03
01:38:11.000 : :Розділ 04
02:17:40.000 : :Розділ 05
02:48:36.000 : :Розділ 06
03:03:44.000 : :Розділ 07
03:31:34.000 : :Розділ 08
Скріншоти:


Автор ріпу та зведення звуку: sergiyko


 Трекер:    Зареєстрований   

Завантажити торрент



відео для новачків



 Зареєстрований:   2016-09-03 12:34
 Розмір:   18.27 GB 
 Оцінка:   10/10 (Голосів: 2)
   
sergiyko.5 
VIP


З нами з: 25.02.16
Востаннє: 22.01.17
Повідомлень: 578

2016-09-03 12:39  
40 годин кодування на I5 і вийшов якісний ріп відкриття олімпіади з українськими коментарями. Всім приємного перегляду.

В кого є можливість, перевірте звучання доріжки №2, псевдо шестиканальний звук.

Ваш часовий пояс: GMT + 2 Години

Нова тема   Відповісти