Завантажити та скачати торренти українською


Книга джунглів / The Jungle Book (2016) 1080p 60fps Ukr/Eng | Sub Eng

Нові коментарі

Нова тема   Відповісти
Автор Повідомлення
SilentBoss 
Частий відвідувач


З нами з: 19.01.11
Востаннє: 30.11.16
Повідомлень: 35

2016-09-02 22:38  
Книга джунглів / The Jungle Book (2016) 1080p 60fps Ukr/Eng | Sub Eng

Книга джунглів / The Jungle Book (2016) 1080p 60fps Ukr/Eng | Sub Eng


Жанр: пригодницький, драма, сімейний
Країна: Велика Британія, США



Кінокомпанія: Fairview Entertainment, Moving Picture Company (MPC), Walt Disney Pictures
Режисер: Джон Фавро
Актори: Ніл Сеті, Білл Мюрей, Бен Кінґслі, Ідріс Ельба, Люпіта Ніонґо, Скарлетт Йоганссен, Джанкарло Еспозіто, Крістофер Вокен, Гаррі Шендлінґ, Брайтон Роуз, ЕмДжей Ентоні, Макс Фавро, Джон Фавро, Сем Реймі

Сюжет:
Ця дивовижна історія розповідає про маленького хлопчика, якого виростили у глухому лісі. Він виховувався у вовчій зграї і осягав закони джунглів під наглядом мудрої пантери Баґіри. Однак, наростаюча загроза з боку тигра Шерхана змушує його покинути рідний будинок і відправитися в найближче село до людей. Йому належить пройти довгий шлях до пізнання свого минулого, сповненого небезпечними пригодами і захоплюючими зустрічами з ведмедем Балу, пітоном Каа, королем мавп Луї і іншими лісовими мешканцями.


Тривалість: 01:45:54
Якість: 1080p (59.940 fps)
Відео:
кодек:
розмір кадру: 1920 x 1036
бітрейт: 28.0 Мбіт/с

Аудіо # 1:
мова: українська
переклад: професійний дубльований
кодек: 5.1
бітрейт: 1509 kbps

Аудіо # 2:
мова: українська
переклад: професійний дубльований
кодек: 5.1
бітрейт: 448 kbps

Аудіо # 3:
мова: англійська
переклад: оригінал
кодек: -HD 7.1
бітрейт: 5356 kbps

Субтитри:
мова: англійська
тип: програмні (м'які)
формат: *.srt
MediaInfo

Video
ID : 1
Format : AVC
Format/Info : Advanced Video Codec
Format profile : [email protected]
Format settings, CABAC : Yes
Format settings, ReFrames : 3 frames
Format settings, GOP : M=4, N=72
Codec ID : V_MPEG4/ISO/AVC
Duration : 1h 45mn
Bit rate : 27.9 Mbps
Width : 1 920 pixels
Height : 1 036 pixels
Display aspect ratio : 1.85:1
Frame rate mode : Constant
Frame rate : 59.940 (60000/1001) fps
Standard : PAL
Color space : YUV
Chroma subsampling : 4:2:0
Bit depth : 8 bits
Scan type : Progressive
Bits/(Pixel*Frame) : 0.234
Stream size : 20.6 GiB (79%)
Title : www.60-fps.org
Language : English
Default : Yes
Forced : No
Color range : Limited
Color primaries : BT.709
Transfer characteristics : BT.709
Matrix coefficients : BT.709

Audio #1
ID : 2
Format :
Format/Info : Digital Theater Systems
Mode : 16
Format settings, Endianness : Big
Codec ID : A_DTS
Duration : 1h 45mn
Bit rate mode : Constant
Bit rate : 1 509 Kbps
Channel(s) : 6 channels
Channel positions : Front: L C R, Side: L R, LFE
Sampling rate : 48.0 KHz
Frame rate : 93.750 fps (512 spf)
Bit depth : 24 bits
Compression mode : Lossy
Stream size : 1.11 GiB (4%)
Title : 5.1 @ 1536 kbps - DUB, Disney / Buena Vista
Language : Ukrainian
Default : Yes
Forced : Yes

Audio #2
ID : 3
Format : AC-3
Format/Info : Audio Coding 3
Mode extension : CM (complete main)
Format settings, Endianness : Big
Codec ID : A_AC3
Duration : 1h 45mn
Bit rate mode : Constant
Bit rate : 448 Kbps
Channel(s) : 6 channels
Channel positions : Front: L C R, Side: L R, LFE
Sampling rate : 48.0 KHz
Frame rate : 31.250 fps (1536 spf)
Compression mode : Lossy
Stream size : 339 MiB (1%)
Title :
Default : No
Forced : No

Audio #3
ID : 4
Format :
Format/Info : Digital Theater Systems
Format profile : MA / Core
Mode : 16
Format settings, Endianness : Big
Codec ID : A_DTS
Duration : 1h 45mn
Bit rate mode : Variable / Constant
Bit rate : 5 356 Kbps / 1 509 Kbps
Channel(s) : 8 channels / 6 channels
Channel positions : Front: L C R, Side: L R, Back: L R, LFE / Front: L C R, Side: L R, LFE
Sampling rate : 48.0 KHz
Frame rate : 93.750 fps (512 spf)
Bit depth : 24 bits
Compression mode : Lossless / Lossy
Stream size : 3.96 GiB (15%)
Title : -HD MA 7.1
Language : English
Default : No
Forced : No

Text
ID : 5
Format : UTF-8
Codec ID : S_TEXT/UTF8
Codec ID/Info : UTF-8 Plain Text
Duration : 1h 44mn
Bit rate : 44 bps
Count of elements : 1218
Stream size : 34.1 KiB (0%)
Language : English
Default : No
Forced : No

Menu
00:00:00.000 : en:Opening Title
00:00:48.214 : en:Running with Wolves
00:05:15.315 : en:Water Truce
00:09:02.458 : en:A Warning
00:12:42.178 : en:Mowgli Leaves the Pack
00:16:34.451 : en:Shere Khan Attacks
00:21:20.028 : en:Akela's Plea
00:27:15.133 : en:Kaa
00:35:04.143 : en:Baloo's Honey
00:43:21.724 : en:The Mowgli Way
00:48:05.132 : en:"The Bare Necessities"
00:53:29.247 : en:Saving the Elephant
00:58:03.271 : en:Monkey Abduction
01:05:46.442 : en:"I Wan'na Be Like You"
01:10:35.522 : en:Monkey Escape
01:17:01.325 : en:The Red Flower
01:20:48.927 : en:The Law of the Jungle
01:24:46.539 : en:The Final Battle
01:30:32.969 : en:Celebration
01:35:53.205 : en:End Credits
Скріншоти






Джерело:60-fps.org & toloka.to


 Трекер:    Зареєстрований   

Завантажити / скачати фільм українською



відео для новачків



 Зареєстрований:   2016-09-02 22:38
 Розмір:   26.02 GB 
 Оцінка фільму:   9.8/10 (Голосів: 10)
   
Інші релізи
igor911 
Відео Гуртом
Відео Гуртом


З нами з: 18.01.08
Востаннє: 03.12.16
Повідомлень: 5124

2016-09-02 23:37  
SilentBoss написано:
2xUkr

Озвучення ж одне й те ж - "2х" треба прибрати
SilentBoss написано:
розмір кадру: 1920 x 1036

а скріншоти 1926х1036

українські субтитри не пробував звідси http://toloka.to/t75083#824249 чи підходять?

SilentBoss 
Частий відвідувач


З нами з: 19.01.11
Востаннє: 30.11.16
Повідомлень: 35

2016-09-03 11:19  
igor911
заголовок виправив, на рахунок кадру-інфу брав з медіа інфо та 60fps.org чому скріни на 6пікселів більші сам не розумію напевно глюк в програвачі заливаю з влс, субтитри не пробував.

zyat5 
Новенький


З нами з: 29.06.15
Востаннє: 03.12.16
Повідомлень: 2

2016-09-04 09:38  
Така гарна швидкість була вчора і зовсім стоїть сьогодні. Панове повертайтеся, будь ласка.

.

Ваш часовий пояс: GMT + 2 Години

Нова тема   Відповісти