Завантажити та скачати торренти українською


Маленьке королівство Бена і Холлі / Ben and Holly's Little Kingdom (Сезон 1-2, 94 серій з 104) (2009) AVC

Нові коментарі

Нова тема   Відповісти
Автор Повідомлення
sergiyko.5 
VIP


З нами з: 25.02.16
Востаннє: 09.12.16
Повідомлень: 488

2016-09-02 16:24  
Маленьке королівство Бена і Холлі / Ben and Holly's Little Kingdom (Сезон 1-2, 94 серій з 104) (2009) AVC

Маленьке королівство Бена і Холлі / Ben and Holly's Little Kingdom (Сезон 1-2, 94 серій з 104) (2009) AVC

Жанр: дитячий, пригодницький
Країна: Великобританія
Режисер: Невіл Естлі, Марк Бейкер


Сюжет / опис фільму:

Десь неподалік серед кущів ожини заховалося невидиме для людського ока Маленьке королівство. Там живуть ельфи, феї, комахи та інші дивовижні істоти.

Тут, де трава здіймається вище веж, живуть добрі друзі – принцеса Холлі та ельф Бен. Холлі та її родина володіють магією, але вона не завжди спрацьовує. Та й літає принцеса поки що не дуже добре. Через це вона частенько потрапляє у кумедні пригоди.

Але сильний і хоробрий Бен завжди готовий прийти на допомогу.

Разом вони завжди знайдуть, чим зайнятися та як повеселитися!



Тривалість: 00:10:37 серія, у роздачі 94 серії

Якість відео:

Відео: кодек: , розмір кадру: 720х528 - 1 сезон, 720x480 - 2 сезон, бітрейт: 500 кб/с
Аудіо: мова: українська, переклад: дубльований (дубляж), аудіокодек: , бітрейт аудіо: 192 кб/с
Джерело озвучення:
Перелік серій

Сезон 1
01.The Royal Fairy Picnic
02.Gaston the Ladybird
03.Holly's Magic Wand
04.The Elf Farm
05.Daisy and Poppy
06.Queen Thistle's Teapot
07.The Frog Prince
08.The King's Busy Day
09.Fun and Games
10.King Thistle is Not Well
11.The Lost Egg
12.The Elf Games
13.Nanny Plum's Lesson
14.The Elf Factory
15.Mrs Witch
16.Elf Joke Day
17.King Thistle's New Clothes
18.Elf School
19.The Royal Golf Course
20.Morning, Noon and Night
21.Gaston's Visit
22.Trip to the Seaside
23.Ben's Birthday Card
24.Books
25.Betty Caterpillar
26.Queen Holly
27.The Tooth Fairy
28.The Elf Windmill
29.The Elf Band
30.The Ant Hill
31.Redbeard the Elf Pirate
32.Tadpoles
33.Cows
34.Queen Thistles's Day off
35.Nature Class
36.The Toy Robot
37.Big Bad Barry
38.King Thistle's Birthday
39.The Wand Factory
40.Camping Out
41.The Dinner Party
42
43.Daisy and Poppy's Pet
44.The Elf Rocket
45.Picnic on the Moon
46.Lucy's Picnic
47.Acorn Day
48.The Elf Submarine
49.Visiting the Marigolds
50.The Party
51
52.The North Pole

Сезон 2
01
02
03.Daisy and Poppy's Playgroup
04.No Magic Day
05.Spies
06.Hard Times
07.Gaston Goes to School
08.Elf Rescue
09.Lucy's School
10.Baby Dragon
11.Dolly Plum
12.The Lost City
13.The Shooting Star
14.Nanny's Magic Test
15.Gaston to the Rescue
16.Miss Cookie's Nature Trail
17
18
19.Mrs Witch's Spring Clean
20.The Fruit Harvest
21.Uncle Gaston
22.Plumbing
23
24
25.Mr Elf Takes a Holiday
26.Honey Bees
27.Lucy's Sleepover
28.Miss Jolly's Riding Club
29.Springtime
30.Pirate Treasure
31.Gaston Goes to the Vet
32.Granny and Granpapa
33.The Dwarf Mine
34.Lucy's Elf and Fairy Party
35.Planet Bong
36.Planet Bong Episode 2
37.The Queen Bakes Cakes
38.The Witch Competition
39.Journey to the Centre of the Earth
40.Redbeard's Rainbow
41.Fox Cubs
42.Nanny Plum and the Wise Old Elf Swap Jobs for One Whole Day
43.The Very Important Person
44.Bunty II
45.Gaston Is Lost
46
47.The Mermaid
48
49.Gaston's Birthday
50.Ben and Holly's Christmas
51.Ben and Holly's Christmas Episode 2
52.Fathers Day
MediaInfo

General
Complete name : E:\Torrents\Mult\Ben and Holly's Little Kingdom \Season 1\S01E01.The Royal Fairy Picnic.mp4
Format : MPEG-4
Format profile : Base Media
Codec ID : isom (isom)
File size : 45.1 MiB
Duration : 10 min
Overall bit rate mode : Variable
Overall bit rate : 590 kb/s
Encoded date : UTC 2016-04-30 06:16:57
Tagged date : UTC 2016-04-30 06:16:57

Video
ID : 1
Format : AVC
Format/Info : Advanced Video Codec
Format profile : [email protected]
Format settings, CABAC : Yes
Format settings, ReFrames : 5 frames
Codec ID : avc1
Codec ID/Info : Advanced Video Coding
Duration : 10 min
Bit rate : 394 kb/s
Maximum bit rate : 2 227 kb/s
Width : 720 pixels
Height : 528 pixels
Display aspect ratio : 4:3
Frame rate mode : Constant
Frame rate : 25.000 FPS
Color space : YUV
Chroma subsampling : 4:2:0
Bit depth : 8 bits
Scan type : Progressive
Bits/(Pixel*Frame) : 0.041
Stream size : 30.1 MiB (67%)
Title : rip by sergiyko
Writing library : core 148 r2665 a01e339
Encoding settings : cabac=1 / ref=5 / deblock=1:-1:-1 / analyse=0x3:0x113 / me=umh / subme=9 / psy=1 / psy_rd=0.40:0.00 / mixed_ref=1 / me_range=16 / chroma_me=1 / trellis=2 / 8x8dct=1 / cqm=0 / deadzone=21,11 / fast_pskip=1 / chroma_qp_offset=-2 / threads=4 / lookahead_threads=1 / sliced_threads=0 / nr=0 / decimate=1 / interlaced=0 / bluray_compat=0 / constrained_intra=0 / bframes=3 / b_pyramid=2 / b_adapt=2 / b_bias=0 / direct=3 / weightb=1 / open_gop=0 / weightp=2 / keyint=250 / keyint_min=25 / scenecut=40 / intra_refresh=0 / rc_lookahead=50 / rc=crf / mbtree=1 / crf=22.0 / qcomp=0.60 / qpmin=0 / qpmax=69 / qpstep=4 / vbv_maxrate=2500 / vbv_bufsize=2500 / crf_max=0.0 / nal_hrd=none / filler=0 / ip_ratio=1.40 / aq=1:0.60
Encoded date : UTC 2016-04-30 06:04:43
Tagged date : UTC 2016-04-30 06:16:58

Audio
ID : 2
Format :
Format/Info : Advanced Audio Codec
Format profile : LC
Codec ID : 40
Duration : 10 min
Bit rate mode : Variable
Bit rate : 192 kb/s
Maximum bit rate : 197 kb/s
Channel(s) : 2 channels
Channel positions : Front: L R
Sampling rate : 48.0 kHz
Frame rate : 46.875 FPS (1024 spf)
Compression mode : Lossy
Stream size : 14.7 MiB (33%)
Title : 2.0ch 192kbps | Плюс Плюс
Language : Ukrainian
Encoded date : UTC 2016-04-29 21:43:06
Tagged date : UTC 2016-04-30 06:16:58
Скріншоти:


Реліз: sergiyko


Бронзовий реліз (на рейтинг впливає 75% завантаженого)
 Трекер:    Зареєстрований   

Завантажити / скачати мультфільм українською



відео для новачків



 Зареєстрований:   2016-09-02 16:24
 Розмір:   4.41 GB 
 Оцінка мультсеріалу:   10/10 (Голосів: 5)
   
sergiyko.5 
VIP


З нами з: 25.02.16
Востаннє: 09.12.16
Повідомлень: 488

2016-09-02 16:45  

Ваш часовий пояс: GMT + 2 Години

Нова тема   Відповісти