Завантажити та скачати торренти українською


Ідальго / Hidalgo (2004) 720p Ukr/Eng | Sub Eng

Нові коментарі

Нова тема   Відповісти
Автор Повідомлення
Anonymous 







2016-09-01 15:52  
Ідальго / Hidalgo (2004) 720p Ukr/Eng | Sub Eng

Ідальго / Hidalgo (2004) 720p Ukr/Eng | Sub Eng

Альтернативні постери




повнорозмірні зображення відкриються по кліку (з натиснутим CTRL чи кліком середньою кнопкою мишки - у новій вкладці)


Жанр: бойовик, пригодницький, вестерн
Країна: США, Марокко



Кінокомпанія: Touchstone Pictures, Casey Silver Productions, Dune Films
Режисер: Джо Джонстон / Joe Johnston
Актори: Вігго Мортенсен / Viggo Mortensen, Зулейка Робінсон / Zuleikha Robinson, Омар Шаріф / Omar Sharif, Джей Кей Сіммонс / J.K. Simmons, Малькольм МакДауелл / Malcolm McDowell, Луіз Ломбард / Louise Lombard та інші

Сюжет:
"Океан вогню" - найпрестижніші перегони в історії. Щороку найкращі арабські скакуни змагаються в багатоденному марафоні по Аравійській пустелі. В 1890 році багатий шейх вперше запросив брати участь у змаганнях іноземця. Ним став американець Френк Гопкінс, найкращий ковбой та наїзник Дикого Заходу. Впливовий шейх поставив божевільні гроші на перемогу іноземця. Тепер його доля залежить від протистояння американського вискочки на мустангу по кличці Ідальго та найкращих арабських жеребців, керованих найвправнішими наїзниками-бедуїнами...
І далеко не всіх влаштовує перемога зухвалого янкі в традиційному арабському дербі, адже вона може принести одним - славу, а іншим - смерть. І для Френка перемога стає не тільки справою честі, але й єдиною можливістю вижити в жарких пісках безкрайньої пустелі ...


Рейтинг MPAA: PG-13 - дітям до 13 років перегляд не бажаний
Вікова категорія: 12+

Тривалість: 02:16:24
Якість: 720p [SbR]
Відео:
кодек:
розмір кадру: 1280 х 534
бітрейт: 6909 Кбіт/с [crf=15]

Аудіо # 1:
мова: українська
переклад: багатоголосий закадровий
ролі озвучили: Вігго Мортенсен — Євген Пашин, Юрій Гребельник, Людмила Ардельян і Тетяна Антонова?
кодек: 2.0
бітрейт: 192 Кбіт/с

Аудіо # 2:
мова: англійська
переклад: оригінал
кодек: 5.1
бітрейт: 640 Кбіт/с

Субтитри:
мова: англійська
тип: програмні (м'які)
формат: *.srt

Збережено оригінальні розділи, як на Blu-ray.
MediaInfo та log
Код:
Complete name               : Hidalgo (2004) [Ukr,Eng sub.Eng] 720p [Hurtom].mkv
Format                      : Matroska
Format version              : Version 4 / Version 2
File size                   : 7.38 GiB
Duration                    : 2 h 16 min
Overall bit rate            : 7 744 kb/s
Movie name                  : Ідальго / Hidalgo (2004) [Ukr,Eng sub.Eng] 720p [Hurtom-igor911]
Writing library             : libebml v1.3.4 + libmatroska v1.4.5
Cover                       : Yes
Attachments                 : cover.jpg / xlog.txt

Video
ID                          : 1
Format                      : AVC
Format/Info                 : Advanced Video Codec
Format profile              : [email protected]
Format settings, CABAC      : Yes
Format settings, ReFrames   : 12 frames
Codec ID                    : V_MPEG4/ISO/AVC
Duration                    : 2 h 16 min
Bit rate                    : 6 909 kb/s
Width                       : 1 280 pixels
Height                      : 534 pixels
Display aspect ratio        : 2.40:1
Frame rate mode             : Constant
Frame rate                  : 23.976 (24000/1001) FPS
Color space                 : YUV
Chroma subsampling          : 4:2:0
Bit depth                   : 8 bits
Scan type                   : Progressive
Bits/(Pixel*Frame)          : 0.422
Stream size                 : 6.58 GiB (89%)
Title                       : Ідальго / Hidalgo (2004) 720p [HDClub-SbR]
Writing library             : core 148 r2705kMod 3f5ed56
Encoding settings           : cabac=1 / ref=12 / deblock=1:-2:-2 / analyse=0x3:0x133 / me=umh / subme=11 / psy=1 / fade_compensate=0.00 / psy_rd=1.00:0.00 / mixed_ref=1 / me_range=32 / chroma_me=1 / trellis=2 / 8x8dct=1 / cqm=0 / deadzone=21,11 / fast_pskip=1 / chroma_qp_offset=-2 / threads=12 / lookahead_threads=3 / sliced_threads=0 / nr=0 / decimate=1 / interlaced=0 / bluray_compat=0 / constrained_intra=0 / fgo=0 / bframes=10 / b_pyramid=2 / b_adapt=2 / b_bias=0 / direct=1 / weightb=1 / open_gop=0 / weightp=2 / keyint=250 / keyint_min=23 / scenecut=40 / intra_refresh=0 / rc_lookahead=60 / rc=crf / mbtree=0 / crf=15.0000 / qcomp=0.60 / qpmin=0 / qpmax=69 / qpstep=4 / vbv_maxrate=62500 / vbv_bufsize=78125 / crf_max=0.0 / nal_hrd=none / filler=0 / ip_ratio=1.40 / pb_ratio=1.30 / aq=1:0.80
Language                    : English
Default                     : Yes
Forced                      : No
Color range                 : Limited
Color primaries             : BT.709
Transfer characteristics    : BT.709
Matrix coefficients         : BT.709

Audio #1
ID                          : 2
Format                      : AC-3
Format/Info                 : Audio Coding 3
Mode extension              : CM (complete main)
Format settings, Endianness : Big
Codec ID                    : A_AC3
Duration                    : 2 h 16 min
Bit rate mode               : Constant
Bit rate                    : 192 kb/s
Channel(s)                  : 2 channels
Channel positions           : Front: L R
Sampling rate               : 48.0 kHz
Frame rate                  : 31.250 FPS (1536 spf)
Compression mode            : Lossy
Stream size                 : 187 MiB (2%)
Title                       : MVO [ICTV] 2.0 192 kbps [Hurtom-NemoInFire,Merdiff]
Language                    : Ukrainian
Default                     : Yes
Forced                      : No

Audio #2
ID                          : 3
Format                      : AC-3
Format/Info                 : Audio Coding 3
Mode extension              : CM (complete main)
Format settings, Endianness : Big
Codec ID                    : A_AC3
Duration                    : 2 h 16 min
Bit rate mode               : Constant
Bit rate                    : 640 kb/s
Channel(s)                  : 6 channels
Channel positions           : Front: L C R, Side: L R, LFE
Sampling rate               : 48.0 kHz
Frame rate                  : 31.250 FPS (1536 spf)
Compression mode            : Lossy
Stream size                 : 624 MiB (8%)
Title                       : Original, 5.1 640 kbps
Language                    : English
Default                     : No
Forced                      : No

Text
ID                          : 4
Format                      : UTF-8
Codec ID                    : S_TEXT/UTF8
Codec ID/Info               : UTF-8 Plain Text
Duration                    : 2 h 6 min
Bit rate                    : 33 b/s
Count of elements           : 1044
Stream size                 : 31.3 KiB (0%)
Language                    : English
Default                     : No
Forced                      : No

Menu
00:00:00.000                : en:Opening/Teaching Respect
00:04:00.114                : en:Wounded Knee Creek
00:08:08.321                : en:Buffalo Bill's Wild West Show
00:13:07.787                : en:An Invitation Accepted
00:23:58.687                : en:Arrival in a Strange World
00:31:04.612                : en:The Sheikh of Sheikhs
00:39:29.992                : en:The Journey Begins
00:50:55.719                : en:Sandstorm!
00:58:42.393                : en:Jazira's Visit
01:06:45.960                : en:Raid and Abduction
01:12:21.795                : en:Rescue
01:23:50.650                : en:A Daughter Returned
01:30:35.805                : en:The Race Continues
01:41:25.788                : en:Treachery
01:49:23.640                : en:Prayer to the Ancestors
01:55:24.208                : en:To the Sea
02:01:13.557                : en:Friends
02:03:51.465                : en:Paid in Full/End Credits

Код:
raw [info]: 1280x534p 1:1 @ 24000/1001 fps (cfr)
[info]: using SAR=1/1
[info]: using cpu capabilities: MMX2 SSE2Fast SSSE3 SSE4.2 AVX
[info]: profile High, level 4.1
[info]: frame I:1498  Avg QP:13.49  size:111318
[info]: frame P:42205 Avg QP:14.66  size: 59814
[info]: frame B:152540 Avg QP:16.80  size: 28701
[info]: consecutive B-frames:  1.7%  3.0%  6.5% 24.4% 16.0% 36.5%  4.1%  4.9%  1.2%  0.9%  0.8%
[info]: mb I  I16..4:  2.5% 86.3% 11.2%
[info]: mb P  I16..4:  0.4% 28.6%  1.7%  P16..4: 19.3% 28.0% 16.7%  2.9%  0.2%    skip: 2.1%
[info]: mb B  I16..4:  0.1%  5.8%  0.2%  B16..8: 31.3% 28.4%  8.6%  direct:10.3%  skip:15.3%  L0:45.1% L1:35.6% BI:19.3%
[info]: 8x8 transform intra:93.4% inter:53.1%
[info]: coded y,uvDC,uvAC intra: 96.6% 85.4% 62.6% inter: 54.0% 33.7% 5.6%
[info]: i16 v,h,dc,p: 46%  8%  7% 39%
[info]: i8 v,h,dc,ddl,ddr,vr,hd,vl,hu:  9% 10% 13%  9% 12% 10% 12% 10% 14%
[info]: i4 v,h,dc,ddl,ddr,vr,hd,vl,hu: 16%  7%  5%  8% 15% 14% 13% 10% 12%
[info]: i8c dc,h,v,p: 42% 29% 16% 13%
[info]: Weighted P-Frames: Y:11.3% UV:6.7%
[info]: ref P L0: 40.7% 11.6% 16.4%  7.5%  6.0%  4.4%  3.8%  2.3%  2.1%  1.8%  1.7%  1.5%  0.2%  0.0%
[info]: ref B L0: 68.2% 12.3%  6.5%  3.5%  2.6%  2.1%  1.7%  1.1%  1.0%  0.6%  0.2%
[info]: ref B L1: 93.9%  6.1%
[info]: kb/s:6909.46

encoded 196243 frames, 6.66 fps, 6909.46 kb/s, duration 8:11:12.08
Ріп<----------> Оригінал






Джерело: &
Подяки: п.NemoInFire за зведення та п.Merdiff за запис з ТБ, п.Віктору за фільмографію та інформацію про озвучення, п.maksym1990 за скан українського постера


ЗАЛИШАЙТЕСЬ ЯКОМОГА ДОВШЕ НА РОЗДАЧІ!
СКАЧАВ САМ - ДАЙ СКАЧАТИ ІНШИМ


Срібний реліз (на рейтинг впливає 50% завантаженого)
 Трекер:    Зареєстрований   

Завантажити / скачати фільм українською



відео для новачків



 Зареєстрований:   2016-09-01 15:52
 Розмір:   7.38 GB 
 Оцінка фільму:   4.4/10 (Голосів: 16)
   
Інші релізи
   Ідальго / Hidalgo (2004) NemoInFire  4 / 0   2.18 GB   2012-11-16 20:44 
Ваш часовий пояс: GMT + 2 Години

Нова тема   Відповісти