Завантажити та скачати торренти українською


Cryogenic Implosion - Creation of the new world (2011) [FLAC] | Death Metal

Нові коментарі

Нова тема   Відповісти
Автор Повідомлення
kolpavel 
VIP


З нами з: 04.05.14
Востаннє: 03.12.16
Повідомлень: 1060

2016-08-31 16:17  
Cryogenic Implosion - Creation of the new world (2011) [FLAC] | Death Metal

Cryogenic Implosion - Creation of the new world (2011) [FLAC] | Death Metal


Стиль: Death Metal
Країна, місто: Україна, Чернівці
Сайти: Офіційний сайт
Видавець: A5 Production \ Metal Scrap Records (AP007 \ MSR022/CD)
Виконавці:
Kadaamp - гітара, вокал
Basher - гітара
Heretic - бас-гітара
Рresfer - барабани
Пісні:
    01. Kick-Off (Intro) - 01:17
    02. Delete Humanity - 04:37
    03. Collector Of Dead Souls - 03:40
    04. Behind A Life Side - 04:11
    05. Rev.6:13-14 - 01:44
    06. Creation Of The New World - 03:58
    07. Madness Of Eternity - 03:31
    08. Mechanization Of Heavenly Light - 03:30

Тривалість: 00:26:33
Мова: інструментал (1,5), англійська (2-4,6-8)
Аудіо-кодек: FLAC
Бітрейт: 1016 кб/с
Джерело: трекер
Додаткова інформація:
EAC:
Exact Audio Copy V1.1 from 23. June 2015

EAC extraction logfile from 13. June 2016, 16:17

Cryogenic Implosion / Creation of the New World

Used drive : HL-DT-STBD-RE BH16NS40 Adapter: 1 ID: 0

Read mode : Secure
Utilize accurate stream : Yes
Defeat audio cache : Yes
Make use of C2 pointers : No

Read offset correction : 6
Overread into Lead-In and Lead-Out : No
Fill up missing offset samples with silence : Yes
Delete leading and trailing silent blocks : No
Null samples used in CRC calculations : Yes
Used interface : Native Win32 interface for Win NT & 2000

Used output format : User Defined Encoder
Selected bitrate : 128 kBit/s
Quality : High
Add ID3 tag : No
Command line compressor : C:\Program Files (x86)\Exact Audio Copy\Flac\flac.exe
Additional command line options : -V -8 -T "Date=%year%" -T "Genre=%genre%" %source%

TOC of the extracted CD

Track | Start | Length | Start sector | End sector
---------------------------------------------------------
1 | 0:00.00 | 1:17.35 | 0 | 5809
2 | 1:17.35 | 4:37.31 | 5810 | 26615
3 | 5:54.66 | 3:40.41 | 26616 | 43156
4 | 9:35.32 | 4:11.12 | 43157 | 61993
5 | 13:46.44 | 1:43.72 | 61994 | 69790
6 | 15:30.41 | 3:58.15 | 69791 | 87655
7 | 19:28.56 | 3:31.50 | 87656 | 103530
8 | 23:00.31 | 3:30.62 | 103531 | 119342

Range status and errors

Selected range

Filename Z:\home\moroder666\Музыка\Cryogenic Implosion - Creation of the New World.wav

Peak level 100.0 %
Extraction speed 5.1 X
Range quality 100.0 %
Test CRC ECC27E0C
Copy CRC ECC27E0C
Copy OK

No errors occurred

AccurateRip summary

Track 1 accurately ripped (confidence 1) [DBA794D5] (AR v2)
Track 2 accurately ripped (confidence 1) [A4CD1F80] (AR v2)
Track 3 accurately ripped (confidence 1) [3CCDCF67] (AR v2)
Track 4 accurately ripped (confidence 1) [341E07B6] (AR v2)
Track 5 accurately ripped (confidence 1) [AC1DD8A2] (AR v2)
Track 6 accurately ripped (confidence 1) [3EA9CF2E] (AR v2)
Track 7 accurately ripped (confidence 1) [223B7DBF] (AR v2)
Track 8 accurately ripped (confidence 1) [C311E39D] (AR v2)

All tracks accurately ripped

End of status report

==== Log checksum 14357676A28988FEBD4D745D6A4465B3CC65E2700BE7934BFA2B56CDDBFE25EB ====


Якщо Ви справді бажаєте підтримати українське - після прослуховування, якщо музика вам сподобалась, придбайте ліцензійний диск. Підтримаймо вітчизняних виконавців!


Срібний реліз (на рейтинг впливає 50% завантаженого)
 Трекер:    Зареєстрований   

Завантажити / скачати українську музику



відео для новачків



 Зареєстрований:   2016-08-31 16:17
 Розмір:   244 MB 
 Оцінка музики:   9.7/10 (Голосів: 3)
   
Ваш часовий пояс: GMT + 2 Години

Нова тема   Відповісти