Завантажити та скачати торренти українською


Одного разу вкушений / Once Bitten (1985) 720р Ukr/Eng

Нові коментарі

Нова тема   Відповісти
Автор Повідомлення
Anonymous 







2016-08-31 12:34  
Одного разу вкушений / Once Bitten (1985) 720р Ukr/Eng

Одного разу вкушений / Once Bitten (1985) 720р Ukr/Eng


«A tasty comedy»


Жанр: комедія, жахи
Країна: США



Кінокомпанія: Metro Goldwyn Mayer
Режисер: Говард Сторм / Howard Storm
Актори: Джим Керрі, Лорен Гаттон, Карен Копінс, Клівон Літтл, Томас Баллаторе, Скіп Лекі, Джеб Стюарт Адамс, Джозеф Братсмен, Стюарт Чарно, Робін Клейн

Сюжет:
Одна річ відрізняє Марка Кендалла від решти хлопців - він останній незайманий в усьому Лос-Анджелесі. Саме з цієї причини на нього почала полювання стародавня вампірша, яка в свої чотириста років виглядає дуже привабливо. Підтримувати молодість і красу їй допомагає кров незайманих. У пошуках чергової жертви Графиня відправляється в нічний клуб. Саме тут вона знайомитися з Марком, у якого є дівчина Робін, але він досі не займався сексом. Увагу такої розкішної дівчини лестить молодій людині і він, не замислюючись, сідає до неї за столик. Цю ніч вони проводять разом, але на ранок хлопець зовсім нічого не пам'ятає. Через деякий час Кендалл розуміє, що починає перетворюватися в вампіра. Його дівчина Робін вирішує допомогти хлопцеві залишитися людиною і вступає в протистояння з могутньою Графинею...


Тривалість: 01:29:09
Якість:
Відео:
розмір кадру: 1 280 х 694
бітрейт: 6 400 кб/с

Аудіо # 1:
мова: українська
переклад: багатоголосий закадровий
кодек: 2.0
бітрейт: 192 кб/с

Аудіо # 2:
мова: англійська
переклад: оригінал
кодек: 2.0
бітрейт: 224 кб/с
MediaInfo
General
Unique ID : 191360217116376535213564471046844482387 (0x8FF6A321903CB6AB8CF00A9987BC8353)
Complete name : Once Bitten (1985) [Hurtom].mkv
Format : Matroska
Format version : Version 2
File size : 4.24 GiB
Duration : 1h 29mn
Overall bit rate : 6 811 Kbps
Movie name : Одного разу вкушений [1985, /720p]
Encoded date : UTC 2016-08-31 10:14:12
Writing application : mkvmerge v4.5.0 ('Speed of Light') зібрано Feb 6 2011 12:51:39
Writing library : libebml v1.2.0 + libmatroska v1.1.0

Video
ID : 1
Format : AVC
Format/Info : Advanced Video Codec
Format profile : [email protected]
Format settings, CABAC : Yes
Format settings, ReFrames : 9 frames
Muxing mode : Header stripping
Codec ID : V_MPEG4/ISO/AVC
Duration : 1h 29mn
Bit rate : 6 400 Kbps
Width : 1 280 pixels
Height : 694 pixels
Display aspect ratio : 16:9
Frame rate : 25.000 fps
Color space : YUV
Chroma subsampling : 4:2:0
Bit depth : 8 bits
Scan type : Progressive
Bits/(Pixel*Frame) : 0.288
Stream size : 3.90 GiB (92%)
Title : Одного разу вкушений [1985, /720p]
Writing library : core 120 r2120 0c7dab9
Encoding settings : cabac=1 / ref=9 / deblock=1:-3:-2 / analyse=0x3:0x133 / me=umh / subme=10 / psy=1 / psy_rd=1.00:0.20 / mixed_ref=1 / me_range=32 / chroma_me=1 / trellis=2 / 8x8dct=1 / cqm=0 / deadzone=21,11 / fast_pskip=1 / chroma_qp_offset=-3 / threads=6 / sliced_threads=0 / nr=0 / decimate=1 / interlaced=0 / bluray_compat=0 / constrained_intra=0 / bframes=4 / b_pyramid=2 / b_adapt=2 / b_bias=0 / direct=3 / weightb=1 / open_gop=0 / weightp=2 / keyint=250 / keyint_min=25 / scenecut=40 / intra_refresh=0 / rc_lookahead=60 / rc=2pass / mbtree=1 / bitrate=6400 / ratetol=1.0 / qcomp=0.60 / qpmin=0 / qpmax=69 / qpstep=4 / cplxblur=20.0 / qblur=0.5 / ip_ratio=1.40 / aq=1:1.00
Language : English
Default : Yes
Forced : No

Audio #1
ID : 2
Format : AC-3
Format/Info : Audio Coding 3
Mode extension : CM (complete main)
Muxing mode : Header stripping
Codec ID : A_AC3
Duration : 1h 29mn
Bit rate mode : Constant
Bit rate : 192 Kbps
Channel(s) : 2 channels
Channel positions : Front: L R
Sampling rate : 44.1 KHz
Bit depth : 16 bits
Compression mode : Lossy
Stream size : 122 MiB (3%)
Title : AMC
Language : Ukrainian
Default : Yes
Forced : No

Audio #2
ID : 3
Format : AC-3
Format/Info : Audio Coding 3
Mode extension : CM (complete main)
Muxing mode : Header stripping
Codec ID : A_AC3
Duration : 1h 29mn
Bit rate mode : Constant
Bit rate : 224 Kbps
Channel(s) : 2 channels
Channel positions : Front: L R
Sampling rate : 48.0 KHz
Bit depth : 16 bits
Compression mode : Lossy
Stream size : 143 MiB (3%)
Title : [ [email protected]]
Language : English
Default : No
Forced : No
Скріншоти







Джерело: &
Подяки:Команда запису з ТБ Воля & slavik_v_z


 Трекер:    Зареєстрований   

Завантажити / скачати фільм українською



відео для новачків



 Зареєстрований:   2016-08-31 12:51
 Розмір:   4.24 GB 
 Оцінка фільму:   10/10 (Голосів: 4)
   
bot 
робот


З нами з: 30.09.07
Востаннє: 26.05.05
Повідомлень: 16030

2016-08-31 12:34  
Тему перенесено з Фільми в HD до форуму Анонси релізів


Петров Микола

bot 
робот


З нами з: 30.09.07
Востаннє: 26.05.05
Повідомлень: 16030

2016-08-31 12:50  
Тему перенесено з Анонси релізів до форуму Фільми в HD


Петров Микола

igor911 
Відео Гуртом
Відео Гуртом


З нами з: 18.01.08
Востаннє: 08.12.16
Повідомлень: 5187

2016-08-31 15:05  
Петров Микола написано:
Muxing mode : Header stripping

заборонено Правилами:
Додаток до релізів в якості HD написано:
3. У файлах .mkv повинна бути вимкнена функція Header stripping

треба перемуксувати з відключеним стисненням заголовків.

Додано через 3 хвилини 51 секунду:

і чого , коли вже давно є блурей?

Додано через 9 хвилин 26 секунд:

на rarbg є 720ка на 4,37 Гб від SADPANDA

Ваш часовий пояс: GMT + 2 Години

Нова тема   Відповісти