Завантажити та скачати торренти українською


Пляшкова ракета / Bottle Rocket (1996) 720p Ukr/Eng | Sub Ukr/Eng

Нові коментарі

Нова тема   Відповісти
Автор Повідомлення
Anonymous 







2016-08-30 22:58  
Пляшкова ракета / Bottle Rocket (1996) 720p Ukr/Eng | Sub Ukr/Eng

Пляшкова ракета / Bottle Rocket (1996) 720p Ukr/Eng | Sub Ukr/Eng

Альтернативні постери




повнорозмірні зображення відкриються по кліку (з натиснутим CTRL чи кліком середньою кнопкою мишки - у новій вкладці)


Жанр: комедія, кримінальний, драма
Країна: США



Кінокомпанія: Columbia Pictures Corporation, Gracie Films
Режисер: Вес Андерсон / Wes Anderson
Актори: Люк Вілсон / Luke Wilson, Овен Вілсон / Owen Wilson, Нед Давд / Ned Dowd, Лумі Кавасос / Lumi Cavazos, Ші Фавлер / Shea Fowler, Джеймс Каан / James Caan, Гейлі Міллер / Haley Miller, Роберт Мусґрейв / Robert Musgrave, Ендрю Вілсон / Andrew Wilson, Браян Тененбаум / Brian Tenenbaum та інші

Сюжет:
Троє друзів, Діґнан, Боб і Ентоні, що проживають в Техасі, довго не могли визначитися, чим вони хочуть займатися в своєму житті. Нарешті хлопці зробили вибір, але їх вибір був досить невдалим, вони вирішили встати на шлях злочинності. На це рішення вплинула думка про те, що життя у злочинця сповнена романтики, якої їм так не вистачало. Але виявляється, в злочинності має бути удача, яка супроводжує не всіх. Першою їхньою справою став книжковий магазин, після пограбування якого їм довелося тікати і ховатися...


Тривалість: 01:31:43
Якість: 720p (власний ріп)
Відео:
кодек:
розмір кадру: 1280 х 692
бітрейт: 11,1 Мбіт/с [crf=18]

Аудіо # 1:
мова: українська
переклад: двоголосий закадровий
кодек: 2.0
бітрейт: 192 Кбіт/с

Аудіо # 2:
мова: англійська
переклад: оригінал
кодек: 5.1
бітрейт: 640 Кбіт/с

Аудіо # 3:
мова: англійська
переклад: коментарі Веса Андерсона та Овена Вілсона
кодек: 2.0
бітрейт: 192 Кбіт/с

Субтитри #1:
мова: українська
тип: програмні (м'які)
формат: *.srt
примітка: переклад ilitbr

Субтитри #2:
мова: англійська (повні)
тип: програмні (м'які)
формат: *.srt

Збережено оригінальні розділи, як на Blu-ray.
MediaInfo та log
Код:
Complete name               : Bottle Rocket (1996) [Ukr,Eng sub.Ukr,Eng] 720p [Hurtom].mkv
Format                      : Matroska
Format version              : Version 4 / Version 2
File size                   : 7.75 GiB
Duration                    : 1 h 31 min
Overall bit rate            : 12.1 Mb/s
Movie name                  : Пляшкова ракета / Bottle Rocket (1996) [Ukr,Eng sub.Ukr,Eng] 720p [Hurtom-igor911]
Encoded date                : UTC 2016-08-30 18:27:16
Writing application         : mkvmerge v9.4.0 ('Knurl') 64bit
Writing library             : libebml v1.3.4 + libmatroska v1.4.5
Cover                       : Yes
Attachments                 : cover.jpg

Video
ID                          : 1
Format                      : AVC
Format/Info                 : Advanced Video Codec
Format profile              : [email protected]
Format settings, CABAC      : Yes
Format settings, ReFrames   : 9 frames
Codec ID                    : V_MPEG4/ISO/AVC
Duration                    : 1 h 31 min
Bit rate                    : 11.1 Mb/s
Width                       : 1 280 pixels
Height                      : 692 pixels
Display aspect ratio        : 1.85:1
Frame rate mode             : Constant
Frame rate                  : 23.976 (24000/1001) FPS
Color space                 : YUV
Chroma subsampling          : 4:2:0
Bit depth                   : 8 bits
Scan type                   : Progressive
Bits/(Pixel*Frame)          : 0.521
Stream size                 : 7.09 GiB (92%)
Title                       : Пляшкова ракета / Bottle Rocket (1996) 720p [Hurtom-igor911]
Writing library             : core 148 r2638 7599210
Encoding settings           : cabac=1 / ref=9 / deblock=1:-1:-1 / analyse=0x3:0x133 / me=umh / subme=10 / psy=1 / psy_rd=1.00:0.15 / mixed_ref=1 / me_range=32 / chroma_me=1 / trellis=2 / 8x8dct=1 / cqm=0 / deadzone=21,11 / fast_pskip=0 / chroma_qp_offset=-3 / threads=12 / lookahead_threads=2 / sliced_threads=0 / nr=0 / decimate=1 / interlaced=0 / bluray_compat=0 / constrained_intra=0 / bframes=8 / b_pyramid=2 / b_adapt=2 / b_bias=0 / direct=3 / weightb=1 / open_gop=0 / weightp=2 / keyint=240 / keyint_min=23 / scenecut=40 / intra_refresh=0 / rc_lookahead=60 / rc=crf / mbtree=1 / crf=18.0 / qcomp=0.60 / qpmin=0 / qpmax=69 / qpstep=4 / vbv_maxrate=62500 / vbv_bufsize=78125 / crf_max=0.0 / nal_hrd=none / filler=0 / ip_ratio=1.40 / aq=1:1.00
Language                    : English
Default                     : Yes
Forced                      : No

Audio #1
ID                          : 2
Format                      : AC-3
Format/Info                 : Audio Coding 3
Mode extension              : CM (complete main)
Format settings, Endianness : Big
Codec ID                    : A_AC3
Duration                    : 1 h 31 min
Bit rate mode               : Constant
Bit rate                    : 192 kb/s
Channel(s)                  : 2 channels
Channel positions           : Front: L R
Sampling rate               : 48.0 kHz
Frame rate                  : 31.250 FPS (1536 spf)
Compression mode            : Lossy
Stream size                 : 126 MiB (2%)
Title                       : DVO [1+1] 2.0 192 kbps [Hurtom-karvai0,servus12]
Language                    : Ukrainian
Default                     : Yes
Forced                      : No

Audio #2
ID                          : 3
Format                      : AC-3
Format/Info                 : Audio Coding 3
Mode extension              : CM (complete main)
Format settings, Endianness : Big
Codec ID                    : A_AC3
Duration                    : 1 h 31 min
Bit rate mode               : Constant
Bit rate                    : 640 kb/s
Channel(s)                  : 6 channels
Channel positions           : Front: L C R, Side: L R, LFE
Sampling rate               : 48.0 kHz
Frame rate                  : 31.250 FPS (1536 spf)
Compression mode            : Lossy
Stream size                 : 420 MiB (5%)
Title                       : Orirginal, 5.1 640 kbps
Language                    : English
Default                     : No
Forced                      : No

Audio #3
ID                          : 4
Format                      : AC-3
Format/Info                 : Audio Coding 3
Mode extension              : CM (complete main)
Format settings, Endianness : Big
Codec ID                    : A_AC3
Duration                    : 1 h 31 min
Bit rate mode               : Constant
Bit rate                    : 192 kb/s
Channel(s)                  : 2 channels
Channel positions           : Front: L R
Sampling rate               : 48.0 kHz
Frame rate                  : 31.250 FPS (1536 spf)
Compression mode            : Lossy
Stream size                 : 126 MiB (2%)
Title                       : commentary featuring Anderson and co-writer/actor Owen Wilson
Language                    : English
Default                     : No
Forced                      : No

Text #1
ID                          : 5
Format                      : UTF-8
Codec ID                    : S_TEXT/UTF8
Codec ID/Info               : UTF-8 Plain Text
Duration                    : 1 h 25 min
Bit rate                    : 113 b/s
Count of elements           : 1185
Stream size                 : 71.1 KiB (0%)
Title                       : Ukr full [Hurtom-ilitbr]
Language                    : Ukrainian
Default                     : No
Forced                      : No

Text #2
ID                          : 6
Format                      : UTF-8
Codec ID                    : S_TEXT/UTF8
Codec ID/Info               : UTF-8 Plain Text
Duration                    : 1 h 25 min
Bit rate                    : 73 b/s
Count of elements           : 1185
Stream size                 : 46.2 KiB (0%)
Title                       : Eng full
Language                    : English
Default                     : No
Forced                      : No

Menu
00:00:00.000                : :75-Year Plan
00:07:25.195                : :Bob Mapplethorpe, Potential Getaway Driver
00:13:51.080                : :Bookstore Robbery
00:19:44.225                : :On the Run from Johnny Law
00:25:56.889                : :Motel
00:35:43.933                : :"He stole his car!"
00:43:31.734                : :Rocky's Scene
00:48:46.215                : :Pointless Act
00:54:03.615                : :Applejack, a Good Man
01:00:07.854                : :The Lawn Wranglers
01:07:56.823                : :Mr. Henry's Party
01:12:42.483                : :Hinckley Cold Storage Robbery
01:19:49.076                : :2000 Man
01:22:38.704                : :Christmas at State Penitentiary
01:27:58.315                : :End Credits

Код:
[info]: frame I:924   Avg QP:16.09  size:193960
[info]: frame P:23357 Avg QP:19.31  size: 90173
[info]: frame B:107676 Avg QP:21.60  size: 49515
[info]: consecutive B-frames:  1.0%  0.7%  2.4%  8.6% 11.9% 52.3% 11.1%  3.8%  8.2%
[info]: mb I  I16..4: 19.8% 62.2% 18.0%
[info]: mb P  I16..4:  0.6% 29.4%  3.2%  P16..4: 23.0% 22.2% 15.7%  1.1%  0.4%    skip: 4.3%
[info]: mb B  I16..4:  0.1% 11.1%  0.5%  B16..8: 36.1% 17.2%  5.9%  direct:12.4%  skip:16.6%  L0:45.1% L1:35.3% BI:19.5%
[info]: 8x8 transform intra:91.2% inter:51.2%
[info]: direct mvs  spatial:99.9% temporal:0.1%
[info]: coded y,uvDC,uvAC intra: 97.9% 82.2% 45.3% inter: 60.0% 37.2% 3.7%
[info]: i16 v,h,dc,p: 20%  5% 42% 33%
[info]: i8 v,h,dc,ddl,ddr,vr,hd,vl,hu:  9%  7% 19% 10% 12% 11% 10% 10% 12%
[info]: i4 v,h,dc,ddl,ddr,vr,hd,vl,hu: 35%  6%  7%  7% 10% 10%  8%  8%  8%
[info]: i8c dc,h,v,p: 38% 29% 21% 12%
[info]: Weighted P-Frames: Y:6.4% UV:2.5%
[info]: ref P L0: 32.1% 11.1% 21.4%  8.4%  8.8%  5.3%  6.0%  3.0%  3.7%  0.3%  0.0%
[info]: ref B L0: 63.8% 14.9%  8.1%  4.8%  3.5%  3.0%  1.5%  0.5%
[info]: ref B L1: 89.7% 10.3%
[info]: kb/s:11071.70
encoded 131957 frames, 7.11 fps, 11071.70 kb/s
Constant Quality Mode: Quality 18 computed...
Video Bitrate Obtained (approximate): 11071 kbit/s


Джерело:
Подяка п.karvai0 та п.servus12 за український звук, п.ilitbr за субтитри та п.Gelios'у за постер.


ЗАЛИШАЙТЕСЬ ЯКОМОГА ДОВШЕ НА РОЗДАЧІ!
СКАЧАВ САМ - ДАЙ СКАЧАТИ ІНШИМ


Срібний реліз (на рейтинг впливає 50% завантаженого)
 Трекер:    Зареєстрований   

Завантажити / скачати фільм українською



відео для новачків



 Зареєстрований:   2016-08-30 22:58
 Розмір:   7.75 GB 
 Оцінка фільму:   4.4/10 (Голосів: 17)
   
Інші релізи
Ваш часовий пояс: GMT + 2 Години

Нова тема   Відповісти