Завантажити та скачати торренти українською


Пляшкова ракета / Bottle Rocket (1996) Remux 1080p Ukr/Eng | Sub Ukr/Eng

Нові коментарі

Нова тема   Відповісти
Автор Повідомлення
Anonymous 







2016-08-30 22:30  
Пляшкова ракета / Bottle Rocket (1996) Remux Ukr/Eng | Sub Ukr/Eng

Пляшкова ракета / Bottle Rocket (1996) Remux 1080p Ukr/Eng | Sub Ukr/Eng

Альтернативні постери




повнорозмірні зображення відкриються по кліку (з натиснутим CTRL чи кліком середньою кнопкою мишки - у новій вкладці)


Жанр: комедія, кримінальний, драма
Країна: США



Кінокомпанія: Columbia Pictures Corporation, Gracie Films
Режисер: Вес Андерсон / Wes Anderson
Актори: Люк Вілсон / Luke Wilson, Овен Вілсон / Owen Wilson, Нед Давд / Ned Dowd, Лумі Кавасос / Lumi Cavazos, Ші Фавлер / Shea Fowler, Джеймс Каан / James Caan, Гейлі Міллер / Haley Miller, Роберт Мусґрейв / Robert Musgrave, Ендрю Вілсон / Andrew Wilson, Браян Тененбаум / Brian Tenenbaum та інші

Сюжет:
Троє друзів, Діґнан, Боб і Ентоні, що проживають в Техасі, довго не могли визначитися, чим вони хочуть займатися в своєму житті. Нарешті хлопці зробили вибір, але їх вибір був досить невдалим, вони вирішили встати на шлях злочинності. На це рішення вплинула думка про те, що життя у злочинця сповнена романтики, якої їм так не вистачало. Але виявляється, в злочинності має бути удача, яка супроводжує не всіх. Першою їхньою справою став книжковий магазин, після пограбування якого їм довелося тікати і ховатися...


Тривалість: 01:31:43
Якість: Remux
Відео:
кодек:
розмір кадру: 1920 х 1080
бітрейт: 31,9 Мбіт/с

Аудіо # 1:
мова: українська
переклад: двоголосий закадровий
кодек: 2.0
бітрейт: 192 Кбіт/с

Аудіо # 2:
мова: англійська
переклад: оригінал
кодек: -HD MA 5.1
бітрейт: 3927 Кбіт/с

Аудіо # 3:
мова: англійська
переклад: коментарі Веса Андерсона та Овена Вілсона
кодек: 2.0
бітрейт: 192 Кбіт/с

Субтитри #1:
мова: українська
тип: програмні (м'які)
формат: *.srt
примітка: переклад ilitbr

Субтитри #2:
мова: англійська (повні)
тип: програмні (м'які)
формат: *.srt

Субтитри #3:
мова: англійська (повні)
тип: пререндерні
формат: VobSub (sub+idx)

Збережено оригінальні розділи, як на Blu-ray.
MediaInfo
Код:
Complete name               : Bottle Rocket (1996) [Ukr,Eng sub.Ukr,Eng] Remux 1080p [Hurtom].mkv
Format                      : Matroska
Format version              : Version 4 / Version 2
File size                   : 23.2 GiB
Duration                    : 1 h 31 min
Overall bit rate mode       : Variable
Overall bit rate            : 36.3 Mb/s
Movie name                  : Пляшкова ракета / Bottle Rocket (1996) [Ukr,Eng sub.Ukr,Eng] Remux 1080p [Hurtom-igor911]
Writing library             : libebml v1.3.4 + libmatroska v1.4.5
Cover                       : Yes
Attachments                 : cover.jpg

Video
ID                          : 1
Format                      : AVC
Format/Info                 : Advanced Video Codec
Format profile              : [email protected]
Format settings, CABAC      : Yes
Format settings, ReFrames   : 4 frames
Format settings, GOP        : M=3, N=12
Codec ID                    : V_MPEG4/ISO/AVC
Duration                    : 1 h 31 min
Bit rate mode               : Variable
Bit rate                    : 31.9 Mb/s
Maximum bit rate            : 37.0 Mb/s
Width                       : 1 920 pixels
Height                      : 1 080 pixels
Display aspect ratio        : 16:9
Frame rate mode             : Constant
Frame rate                  : 23.976 (24000/1001) FPS
Color space                 : YUV
Chroma subsampling          : 4:2:0
Bit depth                   : 8 bits
Scan type                   : Progressive
Bits/(Pixel*Frame)          : 0.642
Stream size                 : 20.5 GiB (88%)
Title                       : Пляшкова ракета / Bottle Rocket (1996) Remux 1080p
Language                    : English
Default                     : Yes
Forced                      : No
Color range                 : Limited
Color primaries             : BT.709
Transfer characteristics    : BT.709
Matrix coefficients         : BT.709

Audio #1
ID                          : 2
Format                      : AC-3
Format/Info                 : Audio Coding 3
Mode extension              : CM (complete main)
Format settings, Endianness : Big
Codec ID                    : A_AC3
Duration                    : 1 h 31 min
Bit rate mode               : Constant
Bit rate                    : 192 kb/s
Channel(s)                  : 2 channels
Channel positions           : Front: L R
Sampling rate               : 48.0 kHz
Frame rate                  : 31.250 FPS (1536 spf)
Compression mode            : Lossy
Stream size                 : 126 MiB (1%)
Title                       : DVO [1+1] 2.0 192 kbps [Hurtom-karvai0,servus12]
Language                    : Ukrainian
Default                     : Yes
Forced                      : No

Audio #2
ID                          : 3
Format                      :
Format/Info                 : Digital Theater Systems
Format profile              : MA / Core
Mode                        : 16
Format settings, Endianness : Big
Codec ID                    : A_DTS
Duration                    : 1 h 31 min
Bit rate mode               : Variable / Constant
Bit rate                    : 3 927 kb/s / 1 509 kb/s
Channel(s)                  : 6 channels
Channel positions           : Front: L C R, Side: L R, LFE
Sampling rate               : 48.0 kHz
Frame rate                  : 93.750 FPS (512 spf)
Bit depth                   : 24 bits
Compression mode            : Lossless / Lossy
Stream size                 : 2.52 GiB (11%)
Title                       : Original, -HD MA 5.1 3927 kbps
Language                    : English
Default                     : No
Forced                      : No

Audio #3
ID                          : 4
Format                      : AC-3
Format/Info                 : Audio Coding 3
Mode extension              : CM (complete main)
Format settings, Endianness : Big
Codec ID                    : A_AC3
Duration                    : 1 h 31 min
Bit rate mode               : Constant
Bit rate                    : 192 kb/s
Channel(s)                  : 2 channels
Channel positions           : Front: L R
Sampling rate               : 48.0 kHz
Frame rate                  : 31.250 FPS (1536 spf)
Compression mode            : Lossy
Stream size                 : 126 MiB (1%)
Title                       : commentary featuring Anderson and co-writer/actor Owen Wilson
Language                    : English
Default                     : No
Forced                      : No

Text #1
ID                          : 5
Format                      : UTF-8
Codec ID                    : S_TEXT/UTF8
Codec ID/Info               : UTF-8 Plain Text
Duration                    : 1 h 25 min
Bit rate                    : 113 b/s
Count of elements           : 1185
Stream size                 : 71.1 KiB (0%)
Title                       : Ukr full [Hurtom-ilitbr]
Language                    : Ukrainian
Default                     : No
Forced                      : No

Text #2
ID                          : 6
Format                      : UTF-8
Codec ID                    : S_TEXT/UTF8
Codec ID/Info               : UTF-8 Plain Text
Duration                    : 1 h 25 min
Bit rate                    : 73 b/s
Count of elements           : 1185
Stream size                 : 46.2 KiB (0%)
Title                       : Eng full [SRT]
Language                    : English
Default                     : No
Forced                      : No

Text #3
ID                          : 7
Format                      : VobSub
Muxing mode                 : zlib
Codec ID                    : S_VOBSUB
Codec ID/Info               : Picture based subtitle format used on DVDs
Duration                    : 1 h 27 min
Bit rate                    : 5 104 b/s
Count of elements           : 1416
Stream size                 : 3.19 MiB (0%)
Title                       : Eng full [VobSub]
Language                    : English
Default                     : No
Forced                      : No

Menu
00:00:00.000                : :75-Year Plan
00:07:25.195                : :Bob Mapplethorpe, Potential Getaway Driver
00:13:51.080                : :Bookstore Robbery
00:19:44.225                : :On the Run from Johnny Law
00:25:56.889                : :Motel
00:35:43.933                : :"He stole his car!"
00:43:31.734                : :Rocky's Scene
00:48:46.215                : :Pointless Act
00:54:03.615                : :Applejack, a Good Man
01:00:07.854                : :The Lawn Wranglers
01:07:56.823                : :Mr. Henry's Party
01:12:42.483                : :Hinckley Cold Storage Robbery
01:19:49.076                : :2000 Man
01:22:38.704                : :Christmas at State Penitentiary
01:27:58.315                : :End Credits


Джерело: &
Подяка п.karvai0 та п.servus12 за український звук, п.ilitbr за субтитри та п.Gelios'у за постер.


ЗАЛИШАЙТЕСЬ ЯКОМОГА ДОВШЕ НА РОЗДАЧІ!
СКАЧАВ САМ - ДАЙ СКАЧАТИ ІНШИМ


Золотий реліз (завантажене не впливає на рейтинг)
 Трекер:    Зареєстрований   

Завантажити / скачати фільм українською



відео для новачків



 Зареєстрований:   2016-08-30 22:30
 Розмір:   23.23 GB 
 Оцінка фільму:   3.6/10 (Голосів: 14)
   
Інші релізи
Ваш часовий пояс: GMT + 2 Години

Нова тема   Відповісти