Завантажити та скачати торренти українською


Тумстоун / Tombstone (1993) 720p Ukr/Eng | Sub Ukr/Eng

Нові коментарі

Нова тема   Відповісти
Автор Повідомлення
Anonymous 







2016-08-30 11:47  
Тумстоун / Tombstone (1993) 720p Ukr/Eng | Sub Ukr/Eng

Тумстоун / Tombstone (1993) 720p Ukr/Eng | Sub Ukr/Eng


Жанр: бойовик, драма, вестерн, історичний
Країна: США



Кінокомпанія: Cinergi Pictures Entertainment, Hollywood Pictures
Режисер: Джордж П. Косматос / George P. Cosmatos, Кевін Жарр / Kevin Jarre
Актори: Курт Рассел, Вел Кілмер, Сем Елліот, Білл Пекстон, Паверс Буз, Майкл Бін, Чарльтон Гестон, Джейсон Прістлі, Джон Тенні, Стівен Ленґ, Томас Гейден Чарч, Дана Делані, Пола Малкольмсон, Ліза Коллінз, Дана Вілер-Ніколсон, Джоанна Пакула, Майкл Рукер, Гаррі Кері-мол., Біллі Боб Торнтон, Томас Арана, Пет Брейді, Пол Бен-Віктор, Джон Філбін, Роберт Джон Бурк, Біллі Зейн, Ваєт Йорп, Джон Корбетт, Бо Ґрей, Форрі Дж. Сміт, Пітер Шерайко, Бак Тейлор, Террі О’Квінн, Френк Сталлоне та інші

Сюжет:
1879 рік. Громадянська війна закінчилася і подальше економічне зростання призвело до великої міграції людей на захід. Багато з них прямують до Тумстоуна, невеликого містечка в Арізоні, в якому знайшли родовища срібла. Ваєт Йорп, колишній шериф, разом з братами, маючи бажання трохи підзаробити, теж приїжджає до цього міста. Але поруч із порядними людьми до тих міст прибувають і злочинці, які утворюють велику та жорстоку банду вбивць.
Фільм повністю базується на реальних подіях.


Рейтинг MPAA: R - особам до 17 років обов'язкова присутність батьків або дорослого опікуна
Вікова категорія: 16+

Тривалість: 02:09:37
Якість: 720p [EbP]
Відео:
кодек:
розмір кадру: 1280 х 534
бітрейт: 6603 Кбіт/с

Аудіо # 1:
мова: українська
озвучення: одноголосе закадрове | SATKUR
переклад: Ярослав Доценко, Dadana, yuranako
кодек: 5.1
бітрейт: 448 Кбіт/с

Аудіо # 2:
мова: англійська
переклад: оригінал
кодек: 5.1
бітрейт: 1509 Кбіт/с

Субтитри # 1:
мова: українська (повні)
тип: програмні (м'які)
формат: *.srt
переклад: Ярослав Доценко (76%), Dadana (15%), yuranako (9%)

Субтитри # 2:
мова: англійська
тип: програмні (м'які)
формат: *.srt

Збережено оригінальні розділи, як на Blu-ray.
MediaInfo
Код:
Complete name               : Tombstone (1993) [Ukr,Eng sub.Ukr,Eng] 720p [Hurtom].mkv
Format                      : Matroska
Format version              : Version 4 / Version 2
File size                   : 7.75 GiB
Duration                    : 2 h 9 min
Overall bit rate            : 8 557 kb/s
Movie name                  : Тумстоун / Tombstone (1993) [Ukr,Eng sub.Ukr,Eng] 720p [Hurtom]
Writing library             : libebml v1.3.4 + libmatroska v1.4.5
Cover                       : Yes
Attachments                 : cover.jpg

Video
ID                          : 1
Format                      : AVC
Format/Info                 : Advanced Video Codec
Format profile              : [email protected]
Format settings, CABAC      : Yes
Format settings, ReFrames   : 10 frames
Codec ID                    : V_MPEG4/ISO/AVC
Duration                    : 2 h 9 min
Bit rate                    : 6 603 kb/s
Width                       : 1 280 pixels
Height                      : 534 pixels
Display aspect ratio        : 2.40:1
Frame rate mode             : Constant
Frame rate                  : 23.976 (23976/1000) FPS
Color space                 : YUV
Chroma subsampling          : 4:2:0
Bit depth                   : 8 bits
Scan type                   : Progressive
Bits/(Pixel*Frame)          : 0.403
Stream size                 : 5.97 GiB (77%)
Title                       : Тумстоун / Tombstone (1993) 720p [EbP]
Writing library             : core 93 r1538 bd72d46
Encoding settings           : cabac=1 / ref=10 / deblock=1:-3:-3 / analyse=0x3:0x113 / me=umh / subme=9 / psy=1 / psy_rd=1.00:0.00 / mixed_ref=1 / me_range=48 / chroma_me=1 / trellis=2 / 8x8dct=1 / cqm=0 / deadzone=21,11 / fast_pskip=0 / chroma_qp_offset=-2 / threads=12 / sliced_threads=0 / nr=0 / decimate=1 / interlaced=0 / constrained_intra=0 / bframes=6 / b_pyramid=2 / b_adapt=2 / b_bias=0 / direct=3 / wpredb=1 / wpredp=2 / keyint=250 / keyint_min=25 / scenecut=40 / intra_refresh=0 / rc=2pass / mbtree=0 / bitrate=6603 / ratetol=1.0 / qcomp=0.60 / qpmin=10 / qpmax=51 / qpstep=4 / cplxblur=20.0 / qblur=0.5 / ip_ratio=1.40 / pb_ratio=1.30 / aq=1:0.70
Language                    : English
Default                     : Yes
Forced                      : No

Audio #1
ID                          : 2
Format                      : AC-3
Format/Info                 : Audio Coding 3
Mode extension              : CM (complete main)
Format settings, Endianness : Big
Codec ID                    : A_AC3
Duration                    : 2 h 9 min
Bit rate mode               : Constant
Bit rate                    : 448 kb/s
Channel(s)                  : 6 channels
Channel positions           : Front: L C R, Side: L R, LFE
Sampling rate               : 48.0 kHz
Frame rate                  : 31.250 FPS (1536 spf)
Compression mode            : Lossy
Stream size                 : 415 MiB (5%)
Title                       : AVO [SATKUR-Доценко Я.,Dadana,yuranako] 5.1 448 kbps
Language                    : Ukrainian
Default                     : Yes
Forced                      : No

Audio #2
ID                          : 3
Format                      :
Format/Info                 : Digital Theater Systems
Mode                        : 16
Format settings, Endianness : Big
Codec ID                    : A_DTS
Duration                    : 2 h 9 min
Bit rate mode               : Constant
Bit rate                    : 1 509 kb/s
Channel(s)                  : 6 channels
Channel positions           : Front: L C R, Side: L R, LFE
Sampling rate               : 48.0 kHz
Frame rate                  : 93.750 FPS (512 spf)
Bit depth                   : 24 bits
Compression mode            : Lossy
Stream size                 : 1.37 GiB (18%)
Title                       : Original, 5.1 1509 kbps
Language                    : English
Default                     : No
Forced                      : No

Text #1
ID                          : 4
Format                      : UTF-8
Codec ID                    : S_TEXT/UTF8
Codec ID/Info               : UTF-8 Plain Text
Duration                    : 2 h 1 min
Bit rate                    : 78 b/s
Count of elements           : 1253
Stream size                 : 69.8 KiB (0%)
Title                       : Ukr [Hurtom-yuranako]
Language                    : Ukrainian
Default                     : No
Forced                      : No

Text #2
ID                          : 5
Format                      : UTF-8
Codec ID                    : S_TEXT/UTF8
Codec ID/Info               : UTF-8 Plain Text
Duration                    : 2 h 1 min
Bit rate                    : 47 b/s
Count of elements           : 1264
Stream size                 : 42.1 KiB (0%)
Title                       : Eng
Language                    : English
Default                     : No
Forced                      : No

Menu
00:00:00.000                : :Program Start
00:00:36.662                : :"The Cowboys"
00:08:51.781                : :Brothers' Reunion
00:10:57.615                : :Doc Holliday
00:18:31.819                : :25 Percent of the House
00:25:20.894                : :An Enchanted Moment
00:26:35.844                : :The Bird Cage Theatre
00:36:08.625                : :At the Faro Table
00:40:43.274                : :Wyatt and Josephine
00:45:45.117                : :Wyatt and Mattie
00:48:49.260                : :Law Dog
00:56:20.377                : :Virgil Earp's Decision
01:04:30.241                : :A Fight A-Comin'
01:05:57.453                : :Doc's Good Woman
01:12:01.400                : :Gunfight at the O.K. Corral
01:20:37.207                : :Ambushed!
01:31:50.463                : :It's Over!
01:34:06.015                : :Hell's Comin'
01:39:00.643                : :A Senseless Murder
01:42:37.276                : :Forgiven
01:49:07.416                : :Showdown
01:52:14.227                : :The Last Charge of Wyatt Earp and His Immortals
01:54:13.638                : :At the Glenwood Sanatorium
01:59:06.890                : :A Dance and Then We'll Call Room Service
02:01:09.721                : :Closing Credits
Ще трохи скріншотів



Джерело: &
Подяка yuranako та SATKUR за українські субтитри та озвучення.


ЗАЛИШАЙТЕСЬ ЯКОМОГА ДОВШЕ НА РОЗДАЧІ!
СКАЧАВ САМ - ДАЙ СКАЧАТИ ІНШИМ


Золотий реліз (завантажене не впливає на рейтинг)
 Трекер:    Зареєстрований   

Завантажити / скачати фільм українською



відео для новачків



 Зареєстрований:   2016-08-30 11:47
 Розмір:   7.75 GB 
 Оцінка фільму:   4/10 (Голосів: 15)
   
Інші релізи
   Тумстоун / Tombstone (1993) Ukr/Eng | sub Ukr/Eng SATKUR  4 / 0   2.59 GB   2015-01-17 01:37 
   Тумстоун / Tombstone (1993) Eng | sub Ukr, Eng yuranako  0 / 0   2.18 GB   2014-10-16 17:45 
Ваш часовий пояс: GMT + 2 Години

Нова тема   Відповісти