Завантажити та скачати торренти українською


Круті стволи / Bastille Day (2016) Remux 1080p Ukr/Eng | Sub Eng

Нові коментарі

Нова тема   Відповісти
Автор Повідомлення
Anonymous 







2016-08-29 14:47  
Круті стволи / Bastille Day (2016) Remux Ukr/Eng | Sub Eng

Круті стволи / Bastille Day (2016) Remux 1080p Ukr/Eng | Sub Eng


Жанр: бойовик
Країна: Франція, Велика Британія, США



Кінокомпанія: StudioCanal, Amazon Prime Instant Video, Anonymous Content
Режисер: Джеймс Воткінс / James Watkins
Актори: Ідріс Ельба, Річард Медден, Шарлот Ле Бон, Келлі Райллі, Хосе Ґарсія, Ерік Ебуані, Анатол Юсеф, Хорхе Леон Мартінес, Александер Купер, Карл Фаррер та інші

Сюжет:
Спритний кишеньковий злодій Майкл Мейсон привертає увагу поліції і спецслужб, коли краде сумку, яка містить набагато більше, ніж просто гаманець. На його слід виходить зухвалий і різкий спецагент ЦРУ Шон Браєр. Удвох вони стають мішенню таємничої злочинної організації, та протягом доби повинні вивести зловмисників на чисту воду.



Рейтинг MPAA: R - особам до 17 років обов'язкова присутність батьків або дорослого опікуна
Вікова категорія: 16+

Тривалість: 01:31:48
Якість: Remux
Відео:
кодек:
розмір кадру: 1920 х 1080
бітрейт: 24,8 Мбіт/с

Аудіо # 1:
мова: українська
переклад: багатоголосий закадровий
кодек: 5.1
бітрейт: 448 Кбіт/с

Аудіо # 2:
мова: англійська
переклад: оригінал
кодек: TrueHD/Atmos 7.1
бітрейт: 4630 Кбіт/с

Субтитри #1:
мова: англійська (форсовані, на фрази французькою)
тип: вбудовані (жорсткі)
примітка: в українській доріжці ці фрази озвучено

Субтитри #2-3:
мова: англійська (повні, SDH)
тип: програмні (м'які)
формат: *.srt

Збережено оригінальні розділи, як на Blu-ray
MediaInfo
Код:
Complete name               : Bastille Day (2016) [Ukr,Eng sub.Eng] Remux 1080p [Hurtom].mkv
Format                      : Matroska
Format version              : Version 4 / Version 2
File size                   : 19.2 GiB
Duration                    : 1 h 32 min
Overall bit rate mode       : Variable
Overall bit rate            : 29.9 Mb/s
Movie name                  : Круті стволи / Bastille Day (2016) [Ukr,Eng sub.Eng] Remux 1080p [Hurtom]
Writing library             : libebml v1.3.4 + libmatroska v1.4.5
Cover                       : Yes
Attachments                 : cover.jpg

Video
ID                          : 1
Format                      : AVC
Format/Info                 : Advanced Video Codec
Format profile              : [email protected]
Format settings, CABAC      : Yes
Format settings, ReFrames   : 4 frames
Codec ID                    : V_MPEG4/ISO/AVC
Duration                    : 1 h 31 min
Bit rate mode               : Variable
Bit rate                    : 24.8 Mb/s
Maximum bit rate            : 28.0 Mb/s
Width                       : 1 920 pixels
Height                      : 1 080 pixels
Display aspect ratio        : 16:9
Frame rate mode             : Constant
Frame rate                  : 24.000 FPS
Color space                 : YUV
Chroma subsampling          : 4:2:0
Bit depth                   : 8 bits
Scan type                   : Progressive
Bits/(Pixel*Frame)          : 0.499
Stream size                 : 15.9 GiB (83%)
Title                       : Круті стволи / Bastille Day (2016) Remux 1080p
Language                    : English
Default                     : Yes
Forced                      : No

Audio #1
ID                          : 2
Format                      : AC-3
Format/Info                 : Audio Coding 3
Mode extension              : CM (complete main)
Format settings, Endianness : Big
Codec ID                    : A_AC3
Duration                    : 1 h 31 min
Bit rate mode               : Constant
Bit rate                    : 448 kb/s
Channel(s)                  : 6 channels
Channel positions           : Front: L C R, Side: L R, LFE
Sampling rate               : 48.0 kHz
Frame rate                  : 31.250 FPS (1536 spf)
Compression mode            : Lossy
Stream size                 : 294 MiB (1%)
Title                       : MVO 5.1 448 kbps [Hurtom-Covenant]
Language                    : Ukrainian
Default                     : Yes
Forced                      : No

Audio #2
ID                          : 3
Format                      : Atmos / TrueHD
Codec ID                    : A_TRUEHD
Duration                    : 1 h 32 min
Bit rate mode               : Variable
Bit rate                    : 4 630 kb/s
Maximum bit rate            : 8 844 kb/s
Channel(s)                  : Object Based / 8 channels
Channel positions           : Object Based / Front: L C R, Side: L R, Back: L R, LFE
Sampling rate               :  / 48.0 kHz
Frame rate                  : 1 200.000 FPS (40 spf)
Compression mode            : Lossless
Stream size                 : 2.98 GiB (16%)
Title                       : Original, TrueHD/Atmos 7.1 4630 kbps
Language                    : English
Default                     : No
Forced                      : No

Text #1
ID                          : 4
Format                      : UTF-8
Codec ID                    : S_TEXT/UTF8
Codec ID/Info               : UTF-8 Plain Text
Duration                    : 1 h 30 min
Bit rate                    : 34 b/s
Count of elements           : 651
Stream size                 : 22.8 KiB (0%)
Title                       : Eng Full
Language                    : English
Default                     : No
Forced                      : No

Text #2
ID                          : 5
Format                      : UTF-8
Codec ID                    : S_TEXT/UTF8
Codec ID/Info               : UTF-8 Plain Text
Duration                    : 1 h 30 min
Bit rate                    : 37 b/s
Count of elements           : 763
Stream size                 : 24.9 KiB (0%)
Title                       : Eng SDH
Language                    : English
Default                     : No
Forced                      : No

Menu
00:00:00.000                : en:00:00:00.000
00:08:06.625                : en:00:08:06.625
00:16:39.833                : en:00:16:39.833
00:24:20.625                : en:00:24:20.625
00:33:04.625                : en:00:33:04.625
00:41:03.625                : en:00:41:03.625
00:48:37.625                : en:00:48:37.625
00:57:03.417                : en:00:57:03.417
01:07:59.000                : en:01:07:59.000
01:16:54.625                : en:01:16:54.625
01:21:43.000                : en:01:21:43.000
01:25:26.833                : en:01:25:26.833


Джерела та подяки:
Подяка за українську доріжку п.Covenant


Підтримати купівлю інших фільмів можна тут



ЗАЛИШАЙТЕСЬ ЯКОМОГА ДОВШЕ НА РОЗДАЧІ!
СКАЧАВ САМ - ДАЙ СКАЧАТИ ІНШИМ


Золотий реліз (завантажене не впливає на рейтинг)
 Трекер:    Зареєстрований   

Завантажити / скачати фільм українською



відео для новачків



 Зареєстрований:   2016-08-29 14:47
 Розмір:   19.23 GB 
 Оцінка фільму:   3.9/10 (Голосів: 15)
   
Інші релізи
   Круті стволи / Bastille Day (2016) 1080p Ukr/Eng | Sub Eng igor911  14 / 0   5.18 GB   2016-08-29 11:42 
   Круті стволи / Bastille Day (2016) 720p Ukr/Eng | Sub Eng 11FrYkT  35 / 0   3.57 GB   2016-08-16 18:46 
   Круті стволи / Bastille Day (2016) Covenant  85 / 0   1.45 GB   2016-08-16 16:49 
Anonymous 







2016-08-29 17:32  
Файл у себе видалю за два тижні, тому прошу підтримати реліз.
skuline 
Свій


З нами з: 17.12.11
Востаннє: 08.12.16
Повідомлень: 114

2016-08-30 00:29  
Класний бойовик !
Ваш часовий пояс: GMT + 2 Години

Нова тема   Відповісти