Завантажити та скачати торренти українською


Круті стволи / Bastille Day (2016) 1080p Ukr/Eng | Sub Eng

Нові коментарі

Нова тема   Відповісти
Автор Повідомлення
Anonymous 







2016-08-29 11:42  
Круті стволи / Bastille Day (2016) 1080p Ukr/Eng | Sub Eng

Круті стволи / Bastille Day (2016) 1080p Ukr/Eng | Sub Eng


Жанр: бойовик
Країна: Франція, Велика Британія, США



Кінокомпанія: StudioCanal, Amazon Prime Instant Video, Anonymous Content
Режисер: Джеймс Воткінс / James Watkins
Актори: Ідріс Ельба, Річард Медден, Шарлот Ле Бон, Келлі Райллі, Хосе Ґарсія, Ерік Ебуані, Анатол Юсеф, Хорхе Леон Мартінес, Александер Купер, Карл Фаррер та інші

Сюжет:
Спритний кишеньковий злодій Майкл Мейсон привертає увагу поліції і спецслужб, коли краде сумку, яка містить набагато більше, ніж просто гаманець. На його слід виходить зухвалий і різкий спецагент ЦРУ Шон Браєр. Удвох вони стають мішенню таємничої злочинної організації, та протягом доби повинні вивести зловмисників на чисту воду.



Рейтинг MPAA: R - особам до 17 років обов'язкова присутність батьків або дорослого опікуна
Вікова категорія: 16+

Тривалість: 01:31:48
Якість: 1080p [власний ріп]
Відео:
кодек:
розмір кадру: 1920 х 800
бітрейт: 6108 Кбіт/с [crf=18]

Аудіо # 1:
мова: українська
переклад: багатоголосий закадровий
кодек: 5.1
бітрейт: 448 Кбіт/с

Аудіо # 2:
мова: англійська
переклад: оригінал
кодек: -ES 6.1
бітрейт: 1509 Кбіт/с

Субтитри #1:
мова: англійська (форсовані, на фрази французькою)
тип: вбудовані (жорсткі)
примітка: в українській доріжці ці фрази озвучено

Субтитри #2-3:
мова: англійська (повні, SDH)
тип: програмні (м'які)
формат: *.srt

Збережено оригінальні розділи, як на Blu-ray
MediaInfo та log
Код:
Complete name               : Bastille Day (2016) [Ukr,Eng sub.Eng] 1080p [Hurtom].mkv
Format                      : Matroska
Format version              : Version 4 / Version 2
File size                   : 5.18 GiB
Duration                    : 1 h 32 min
Overall bit rate            : 8 042 kb/s
Movie name                  : Круті стволи / Bastille Day (2016) [Ukr,Eng sub.Eng] 1080p [Hurtom]
Writing library             : libebml v1.3.4 + libmatroska v1.4.5
Cover                       : Yes
Attachments                 : cover.jpg

Video
ID                          : 1
Format                      : AVC
Format/Info                 : Advanced Video Codec
Format profile              : [email protected]
Format settings, CABAC      : Yes
Format settings, ReFrames   : 5 frames
Codec ID                    : V_MPEG4/ISO/AVC
Duration                    : 1 h 31 min
Bit rate                    : 6 108 kb/s
Width                       : 1 920 pixels
Height                      : 800 pixels
Display aspect ratio        : 2.40:1
Frame rate mode             : Constant
Frame rate                  : 24.000 FPS
Color space                 : YUV
Chroma subsampling          : 4:2:0
Bit depth                   : 8 bits
Scan type                   : Progressive
Bits/(Pixel*Frame)          : 0.166
Stream size                 : 3.92 GiB (76%)
Title                       : Круті стволи / Bastille Day (2016) 1080p [Hurtom-igor911]
Writing library             : core 148 r2638 7599210
Encoding settings           : cabac=1 / ref=5 / deblock=1:-1:-1 / analyse=0x3:0x133 / me=umh / subme=10 / psy=1 / psy_rd=1.00:0.15 / mixed_ref=1 / me_range=32 / chroma_me=1 / trellis=2 / 8x8dct=1 / cqm=0 / deadzone=21,11 / fast_pskip=0 / chroma_qp_offset=-3 / threads=12 / lookahead_threads=2 / sliced_threads=0 / nr=0 / decimate=1 / interlaced=0 / bluray_compat=0 / constrained_intra=0 / bframes=8 / b_pyramid=2 / b_adapt=2 / b_bias=0 / direct=3 / weightb=1 / open_gop=0 / weightp=2 / keyint=240 / keyint_min=24 / scenecut=40 / intra_refresh=0 / rc_lookahead=60 / rc=crf / mbtree=1 / crf=18.0 / qcomp=0.60 / qpmin=0 / qpmax=69 / qpstep=4 / vbv_maxrate=62500 / vbv_bufsize=78125 / crf_max=0.0 / nal_hrd=none / filler=0 / ip_ratio=1.40 / aq=1:1.00
Language                    : English
Default                     : Yes
Forced                      : No

Audio #1
ID                          : 2
Format                      : AC-3
Format/Info                 : Audio Coding 3
Mode extension              : CM (complete main)
Format settings, Endianness : Big
Codec ID                    : A_AC3
Duration                    : 1 h 31 min
Bit rate mode               : Constant
Bit rate                    : 448 kb/s
Channel(s)                  : 6 channels
Channel positions           : Front: L C R, Side: L R, LFE
Sampling rate               : 48.0 kHz
Frame rate                  : 31.250 FPS (1536 spf)
Compression mode            : Lossy
Stream size                 : 294 MiB (6%)
Title                       : MVO 5.1 448 kbps [Hurtom-Covenant]
Language                    : Ukrainian
Default                     : Yes
Forced                      : No

Audio #2
ID                          : 3
Format                      :
Format/Info                 : Digital Theater Systems
Format profile              : ES Matrix / Core
Mode                        : 16
Format settings, Endianness : Big
Codec ID                    : A_DTS
Duration                    : 1 h 32 min
Bit rate mode               : Constant
Bit rate                    : 1 509 kb/s
Channel(s)                  : 7 channels / 6 channels
Channel positions           : Front: L C R, Side: L R, Back: C, LFE / Front: L C R, Side: L R, LFE
Sampling rate               : 48.0 kHz
Frame rate                  : 93.750 FPS (512 spf)
Bit depth                   : 24 bits
Compression mode            : Lossy
Stream size                 : 995 MiB (19%)
Title                       : Original, -ES 6.1 1509 kbps
Language                    : English
Default                     : No
Forced                      : No

Text #1
ID                          : 4
Format                      : UTF-8
Codec ID                    : S_TEXT/UTF8
Codec ID/Info               : UTF-8 Plain Text
Duration                    : 1 h 30 min
Bit rate                    : 34 b/s
Count of elements           : 651
Stream size                 : 22.8 KiB (0%)
Title                       : Eng Full
Language                    : English
Default                     : No
Forced                      : No

Text #2
ID                          : 5
Format                      : UTF-8
Codec ID                    : S_TEXT/UTF8
Codec ID/Info               : UTF-8 Plain Text
Duration                    : 1 h 30 min
Bit rate                    : 37 b/s
Count of elements           : 763
Stream size                 : 24.9 KiB (0%)
Title                       : Eng SDH
Language                    : English
Default                     : No
Forced                      : No

Menu
00:00:00.000                : en:00:00:00.000
00:08:06.625                : en:00:08:06.625
00:16:39.833                : en:00:16:39.833
00:24:20.625                : en:00:24:20.625
00:33:04.625                : en:00:33:04.625
00:41:03.625                : en:00:41:03.625
00:48:37.625                : en:00:48:37.625
00:57:03.417                : en:00:57:03.417
01:07:59.000                : en:01:07:59.000
01:16:54.625                : en:01:16:54.625
01:21:43.000                : en:01:21:43.000
01:25:26.833                : en:01:25:26.833

Код:
raw [info]: 1920x800p 1:1 @ 24/1 fps (cfr)
[info]: using SAR=1/1
[info]: using cpu capabilities: MMX2 SSE2Fast SSSE3 SSE4.2 AVX
[info]: profile High, level 4.1
[info]: frame I:1468  Avg QP:15.07  size:220769
[info]: frame P:31041 Avg QP:18.74  size: 57475
[info]: frame B:99706 Avg QP:20.86  size: 21038
[info]: consecutive B-frames:  3.7%  3.8% 11.5% 14.3% 20.4% 38.0%  5.5%  1.0%  1.5%
[info]: mb I  I16..4: 10.4% 75.2% 14.4%
[info]: mb P  I16..4:  3.2% 17.5%  1.6%  P16..4: 43.8% 14.8% 10.3%  0.3%  0.1%    skip: 8.2%
[info]: mb B  I16..4:  0.3%  1.7%  0.1%  B16..8: 42.4%  7.8%  1.6%  direct: 5.8%  skip:40.3%  L0:44.6% L1:47.0% BI: 8.3%
[info]: 8x8 transform intra:78.5% inter:71.1%
[info]: direct mvs  spatial:100.0% temporal:0.0%
[info]: coded y,uvDC,uvAC intra: 78.9% 76.6% 51.6% inter: 22.7% 20.8% 5.9%
[info]: i16 v,h,dc,p: 31% 16% 10% 43%
[info]: i8 v,h,dc,ddl,ddr,vr,hd,vl,hu: 12% 11% 10%  9% 12% 12% 12% 11% 12%
[info]: i4 v,h,dc,ddl,ddr,vr,hd,vl,hu: 13% 12%  5%  8% 14% 13% 13% 10% 11%
[info]: i8c dc,h,v,p: 45% 21% 19% 15%
[info]: Weighted P-Frames: Y:2.0% UV:1.2%
[info]: ref P L0: 51.9%  9.8% 22.2%  8.0%  7.0%  1.0%  0.0%
[info]: ref B L0: 78.4% 15.7%  4.7%  1.2%
[info]: ref B L1: 92.2%  7.8%
[info]: kb/s:6107.59
encoded 132215 frames, 8.27 fps, 6107.59 kb/s
Constant Quality Mode: Quality 18 computed...
Video Bitrate Obtained (approximate): 6107 kbit/s


Джерела та подяки:
Подяка за українську доріжку п.Covenant


Підтримати купівлю інших фільмів можна тут



ЗАЛИШАЙТЕСЬ ЯКОМОГА ДОВШЕ НА РОЗДАЧІ!
СКАЧАВ САМ - ДАЙ СКАЧАТИ ІНШИМ


 Трекер:    Зареєстрований   

Завантажити / скачати фільм українською



відео для новачків



 Зареєстрований:   2016-08-29 11:42
 Розмір:   5.18 GB 
 Оцінка фільму:   4.7/10 (Голосів: 18)
   
Інші релізи
   Круті стволи / Bastille Day (2016) Remux 1080p Ukr/Eng | Sub Eng igor911  2 / 0   19.23 GB   2016-08-29 14:47 
   Круті стволи / Bastille Day (2016) 720p Ukr/Eng | Sub Eng 11FrYkT  18 / 1   3.57 GB   2016-08-16 18:46 
   Круті стволи / Bastille Day (2016) Covenant  52 / 0   1.45 GB   2016-08-16 16:49 
BooodyArt 
Новенький


З нами з: 14.03.15
Востаннє: 28.11.16
Повідомлень: 1

2016-08-29 12:57  
Ну як так можна перекладати назву фільму і хто це взагалі робить??? Ну назвіть "День взяття Бастилії" чи врешті-решт "День Бастилії".
Oleksa9 
Поважний учасник


З нами з: 17.05.12
Востаннє: 03.12.16
Повідомлень: 225

2016-08-29 16:47  
Так переклад ж робився, як для бидла....
Ваш часовий пояс: GMT + 2 Години

Нова тема   Відповісти