Завантажити та скачати торренти українською


Сьома подорож Синдбада / The 7th Voyage of Sinbad (1958) Remux 1080p Ukr/Eng | Sub Eng

Нові коментарі

Нова тема   Відповісти
Автор Повідомлення
Anonymous 







2016-08-28 18:19  
Сьома подорож Синдбада / The 7th Voyage of Sinbad (1958) Remux Ukr/Eng | Sub Eng

Сьома подорож Синдбада / The 7th Voyage of Sinbad (1958) Remux 1080p Ukr/Eng | Sub Eng

Українізований постер


повнорозмірні зображення відкриються по кліку (з натиснутим CTRL чи кліком середньою кнопкою мишки - у новій вкладці)


Жанр: сімейний, пригодницький, фентезі
Країна: США



Кінокомпанія: Morningside Productions
Режисер: Натан Юран / Nathan Juran
Актори: Кервін Метьюз / Kerwin Mathews, Кетрін Ґрант / Kathryn Grant, Річард Аєр / Richard Eyer, Торін Тетчер / Torin Thatcher та інші

Сюжет:
Синдбад, бажаючи позбавити свою наречену від чар злого чаклуна Сакури, вирушає до чарівного острова, де на нього та його друзів очікують безліч небезпек і випробувань.
Синдбад повинен перемогти мерзенного одноокого циклопа і величезного дракона, битися з чорним чародієм - і, врешті-решт, отримавши перемогу над силами зла і звільнивши від закляття кохану, відправитися вперед, назустріч новим подвигам.


Рейтинг MPAA: G - нема вікових обмежень
Вікова категорія: 0+

Тривалість: 01:28:09
Якість: Remux
Відео:
кодек:
розмір кадру: 1920 х 1080
бітрейт: 29 Мбіт/с

Аудіо # 1:
мова: українська
переклад: багатоголосий закадровий | Так Треба Продакшн
кодек: 2.0
бітрейт: 192 Кбіт/с

Аудіо # 2:
мова: англійська
переклад: оригінал
кодек: 5.1
бітрейт: 1510 Кбіт/с

Субтитри:
мова: англійська
тип: програмні (м'які)
формат: *.srt
MediaInfo
Код:
Complete name               : The 7th Voyage of Sinbad (1958) [Ukr,Eng sub.Eng] Remux 1080p [Hurtom].mkv
Format                      : Matroska
Format version              : Version 4 / Version 2
File size                   : 18.9 GiB
Duration                    : 1 h 28 min
Overall bit rate mode       : Variable
Overall bit rate            : 30.7 Mb/s
Movie name                  : Сьома подорож Синдбада / The 7th Voyage of Sinbad (1958) [Ukr,Eng sub.Eng] Remux [Hurtom-igor911]
Writing library             : libebml v1.3.4 + libmatroska v1.4.5
Cover                       : Yes
Attachments                 : cover.jpg

Video
ID                          : 1
Format                      : AVC
Format/Info                 : Advanced Video Codec
Format profile              : [email protected]
Format settings, CABAC      : Yes
Format settings, ReFrames   : 2 frames
Codec ID                    : V_MPEG4/ISO/AVC
Duration                    : 1 h 28 min
Bit rate mode               : Variable
Bit rate                    : 29.0 Mb/s
Width                       : 1 920 pixels
Height                      : 1 080 pixels
Display aspect ratio        : 16:9
Frame rate mode             : Constant
Frame rate                  : 23.976 (24000/1001) FPS
Color space                 : YUV
Chroma subsampling          : 4:2:0
Bit depth                   : 8 bits
Scan type                   : Progressive
Bits/(Pixel*Frame)          : 0.582
Stream size                 : 17.8 GiB (94%)
Title                       : Сьома подорож Синдбада / The 7th Voyage of Sinbad (1958) Remux 1080p [HDClub]
Language                    : English
Default                     : Yes
Forced                      : No

Audio #1
ID                          : 2
Format                      : AC-3
Format/Info                 : Audio Coding 3
Mode extension              : CM (complete main)
Format settings, Endianness : Big
Codec ID                    : A_AC3
Duration                    : 1 h 28 min
Bit rate mode               : Constant
Bit rate                    : 192 kb/s
Channel(s)                  : 2 channels
Channel positions           : Front: L R
Sampling rate               : 48.0 kHz
Frame rate                  : 31.250 FPS (1536 spf)
Compression mode            : Lossy
Stream size                 : 121 MiB (1%)
Title                       : MVO [Inter-TTP] 2.0 192 kbps [Hurtom-taraskill1, robotron005]
Language                    : Ukrainian
Default                     : Yes
Forced                      : No

Audio #2
ID                          : 3
Format                      :
Format/Info                 : Digital Theater Systems
Mode                        : 16
Format settings, Endianness : Big
Codec ID                    : A_DTS
Duration                    : 1 h 28 min
Bit rate mode               : Constant
Bit rate                    : 1 510 kb/s
Channel(s)                  : 6 channels
Channel positions           : Front: L C R, Side: L R, LFE
Sampling rate               : 48.0 kHz
Frame rate                  : 93.750 FPS (512 spf)
Bit depth                   : 24 bits
Compression mode            : Lossy
Stream size                 : 952 MiB (5%)
Title                       : Original, 5.1 1510 kbps
Language                    : English
Default                     : No
Forced                      : No

Text
ID                          : 4
Format                      : UTF-8
Codec ID                    : S_TEXT/UTF8
Codec ID/Info               : UTF-8 Plain Text
Duration                    : 1 h 25 min
Bit rate                    : 39 b/s
Count of elements           : 700
Stream size                 : 24.8 KiB (0%)
Title                       : Eng full
Language                    : English
Default                     : No
Forced                      : No

Джерела та подяки: &
українська доріжка - robotron005, taraskill1 - зведення, robotron005 - запис з ТБ; українізація постера - Drobik81 (всі - Гуртом).


Усі фільми про Синдбада на Толоці

ЗАЛИШАЙТЕСЬ ЯКОМОГА ДОВШЕ НА РОЗДАЧІ!

СКАЧАВ САМ - ДАЙ СКАЧАТИ ІНШИМ


Золотий реліз (завантажене не впливає на рейтинг)
 Трекер:    Зареєстрований   

Завантажити / скачати фільм українською



відео для новачків



 Зареєстрований:   2016-08-28 18:19
 Розмір:   18.88 GB 
 Оцінка фільму:   2.5/10 (Голосів: 12)
   
Anonymous 







2016-08-28 18:26  
Через брак вільного місця роздаватиму лише тиждень-два, тож прошу підтримати реліз.
staf777 
Попереджень: 1
Попереджень: 1 


З нами з: 16.11.16
Востаннє: 06.12.16
Повідомлень: 176

2016-11-20 16:57  
igor911
Зараз підтримаємо з великим задоволенням
Якщо щось треба підтримати пишіть в лічку - можу викачати хоч всю Толоку

staf777 
Попереджень: 1
Попереджень: 1 


З нами з: 16.11.16
Востаннє: 06.12.16
Повідомлень: 176

2016-11-20 21:54  
Де сіди - ау - роздасть хтось - шкода, якщо такий розкішний реліз пропаде
Anonymous 







2016-11-20 22:00  
staf777
igor911 2016-08-28 написано:
Через брак вільного місця роздаватиму лише тиждень-два

я давно видалив реліз в себе, але начебто його переливали на екс.

Додано через 2 хвилини 47 секунд:

можеш приєднатися до роздачі з екса: http://www.ex.ua/103883492

Ваш часовий пояс: GMT + 2 Години

Нова тема   Відповісти