Завантажити та скачати торренти українською


Сьома подорож Синдбада / The 7th Voyage of Sinbad (1958) 720p Ukr/Eng | Sub Eng

Нові коментарі

Нова тема   Відповісти
Автор Повідомлення
Anonymous 







2016-08-28 16:45  
Сьома подорож Синдбада / The 7th Voyage of Sinbad (1958) 720p Ukr/Eng | Sub Eng

Сьома подорож Синдбада / The 7th Voyage of Sinbad (1958) 720p Ukr/Eng | Sub Eng

Українізований постер


повнорозмірні зображення відкриються по кліку (з натиснутим CTRL чи кліком середньою кнопкою мишки - у новій вкладці)


Жанр: сімейний, пригодницький, фентезі
Країна: США



Кінокомпанія: Morningside Productions
Режисер: Натан Юран / Nathan Juran
Актори: Кервін Метьюз / Kerwin Mathews, Кетрін Ґрант / Kathryn Grant, Річард Аєр / Richard Eyer, Торін Тетчер / Torin Thatcher та інші

Сюжет:
Синдбад, бажаючи позбавити свою наречену від чар злого чаклуна Сакури, вирушає до чарівного острова, де на нього та його друзів очікують безліч небезпек і випробувань.
Синдбад повинен перемогти мерзенного одноокого циклопа і величезного дракона, битися з чорним чародієм - і, врешті-решт, отримавши перемогу над силами зла і звільнивши від закляття кохану, відправитися вперед, назустріч новим подвигам.


Рейтинг MPAA: G - нема вікових обмежень
Вікова категорія: 0+

Тривалість: 01:28:09
Якість: 720p - власний ріп
Відео:
кодек:
розмір кадру: 1280 х 768
бітрейт: 14 Мбіт/с [crf=18]

Аудіо # 1:
мова: українська
переклад: багатоголосий закадровий | Так Треба Продакшн
кодек: 2.0
бітрейт: 192 Кбіт/с

Аудіо # 2:
мова: англійська
переклад: оригінал
кодек: 5.1
бітрейт: 1510 Кбіт/с

Субтитри:
мова: англійська
тип: програмні (м'які)
формат: *.srt
MediaInfo та log
Код:
Complete name               : The 7th Voyage of Sinbad (1958) [Ukr,Eng sub.Eng] 720p [Hurtom].mkv
Format                      : Matroska
Format version              : Version 4 / Version 2
File size                   : 9.68 GiB
Duration                    : 1 h 28 min
Overall bit rate            : 15.7 Mb/s
Movie name                  : Сьома подорож Синдбада / The 7th Voyage of Sinbad (1958) [Ukr,Eng sub.Eng] 720p [Hurtom-igor911]
Writing library             : libebml v1.3.4 + libmatroska v1.4.5
Cover                       : Yes
Attachments                 : cover.jpg

Video
ID                          : 1
Format                      : AVC
Format/Info                 : Advanced Video Codec
Format profile              : [email protected]
Format settings, CABAC      : Yes
Format settings, ReFrames   : 8 frames
Codec ID                    : V_MPEG4/ISO/AVC
Duration                    : 1 h 28 min
Bit rate                    : 14.0 Mb/s
Width                       : 1 280 pixels
Height                      : 768 pixels
Display aspect ratio        : 5:3
Frame rate mode             : Constant
Frame rate                  : 23.976 (24000/1001) FPS
Color space                 : YUV
Chroma subsampling          : 4:2:0
Bit depth                   : 8 bits
Scan type                   : Progressive
Bits/(Pixel*Frame)          : 0.595
Stream size                 : 8.63 GiB (89%)
Title                       : Сьома подорож Синдбада / The 7th Voyage of Sinbad (1958) 720p [Hurtom-igor911]
Writing library             : core 148 r2638 7599210
Encoding settings           : cabac=1 / ref=8 / deblock=1:-1:-1 / analyse=0x3:0x133 / me=esa / subme=11 / psy=1 / psy_rd=1.00:0.15 / mixed_ref=1 / me_range=48 / chroma_me=1 / trellis=2 / 8x8dct=1 / cqm=0 / deadzone=21,11 / fast_pskip=0 / chroma_qp_offset=-3 / threads=12 / lookahead_threads=3 / sliced_threads=0 / nr=0 / decimate=1 / interlaced=0 / bluray_compat=0 / constrained_intra=0 / bframes=12 / b_pyramid=2 / b_adapt=2 / b_bias=0 / direct=3 / weightb=1 / open_gop=0 / weightp=2 / keyint=240 / keyint_min=22 / scenecut=40 / intra_refresh=0 / rc_lookahead=60 / rc=crf / mbtree=1 / crf=18.0 / qcomp=0.60 / qpmin=0 / qpmax=69 / qpstep=4 / vbv_maxrate=62500 / vbv_bufsize=78125 / crf_max=0.0 / nal_hrd=none / filler=0 / ip_ratio=1.40 / aq=1:1.00
Language                    : English
Default                     : Yes
Forced                      : No

Audio #1
ID                          : 2
Format                      : AC-3
Format/Info                 : Audio Coding 3
Mode extension              : CM (complete main)
Format settings, Endianness : Big
Codec ID                    : A_AC3
Duration                    : 1 h 28 min
Bit rate mode               : Constant
Bit rate                    : 192 kb/s
Channel(s)                  : 2 channels
Channel positions           : Front: L R
Sampling rate               : 48.0 kHz
Frame rate                  : 31.250 FPS (1536 spf)
Compression mode            : Lossy
Stream size                 : 121 MiB (1%)
Title                       : MVO [Inter-TTP] 2.0 192 kbps [Hurtom-taraskill1, robotron005]
Language                    : Ukrainian
Default                     : Yes
Forced                      : No

Audio #2
ID                          : 3
Format                      :
Format/Info                 : Digital Theater Systems
Mode                        : 16
Format settings, Endianness : Big
Codec ID                    : A_DTS
Duration                    : 1 h 28 min
Bit rate mode               : Constant
Bit rate                    : 1 510 kb/s
Channel(s)                  : 6 channels
Channel positions           : Front: L C R, Side: L R, LFE
Sampling rate               : 48.0 kHz
Frame rate                  : 93.750 FPS (512 spf)
Bit depth                   : 24 bits
Compression mode            : Lossy
Stream size                 : 952 MiB (10%)
Title                       : Original, 5.1 1510 kbps
Language                    : English
Default                     : No
Forced                      : No

Text
ID                          : 4
Format                      : UTF-8
Codec ID                    : S_TEXT/UTF8
Codec ID/Info               : UTF-8 Plain Text
Duration                    : 1 h 25 min
Bit rate                    : 39 b/s
Count of elements           : 700
Stream size                 : 24.8 KiB (0%)
Title                       : Eng full
Language                    : English
Default                     : No
Forced                      : No


Код:
raw [info]: 1280x768p 1:1 @ 24000/1001 fps (cfr)
[info]: using SAR=1/1
[info]: using cpu capabilities: MMX2 SSE2Fast SSSE3 SSE4.2 AVX
[info]: profile High, level 4.1
[info]: frame I:1032  Avg QP:16.80  size:224321
[info]: frame P:21767 Avg QP:20.11  size:114664
[info]: frame B:104017 Avg QP:22.70  size: 62844
[info]: consecutive B-frames:  1.1%  0.6%  1.5% 13.7% 13.6% 31.3% 11.4% 16.8%  4.4%  2.1%  1.3%  1.8%  0.5%
[info]: mb I  I16..4:  4.3% 81.1% 14.6%
[info]: mb P  I16..4:  0.4% 30.5%  2.1%  P16..4: 20.5% 27.4% 15.0%  2.5%  0.2%    skip: 1.6%
[info]: mb B  I16..4:  0.1% 13.4%  0.2%  B16..8: 30.3% 23.4%  8.0%  direct:15.6%  skip: 9.1%  L0:41.4% L1:35.3% BI:23.3%
[info]: 8x8 transform intra:95.5% inter:60.8%
[info]: direct mvs  spatial:100.0% temporal:0.0%
[info]: coded y,uvDC,uvAC intra: 98.6% 96.2% 84.1% inter: 70.2% 55.8% 13.9%
[info]: i16 v,h,dc,p: 63% 10% 14% 13%
[info]: i8 v,h,dc,ddl,ddr,vr,hd,vl,hu:  8%  7% 13% 10% 14% 12% 12% 12% 13%
[info]: i4 v,h,dc,ddl,ddr,vr,hd,vl,hu:  8%  6%  5%  9% 16% 15% 14% 13% 14%
[info]: i8c dc,h,v,p: 56% 14% 13% 16%
[info]: Weighted P-Frames: Y:25.0% UV:19.6%
[info]: ref P L0: 32.4%  9.4% 20.1% 10.5%  9.4%  6.6%  6.6%  4.1%  0.9%  0.0%
[info]: ref B L0: 69.3% 13.9%  7.1%  4.4%  3.1%  1.7%  0.5%
[info]: ref B L1: 92.1%  7.9%
[info]: kb/s:14012.11
encoded 126816 frames, 1.45 fps, 14012.11 kb/s

Джерела та подяки: &
ріп відео - igor911; джерело для ріпу відео - Remux з HDClub'у; українська доріжка - robotron005, taraskill1 - зведення, robotron005 - запис з ТБ; українізація постера - Drobik81 (всі - Гуртом).


Усі фільми про Синдбада на Толоці

ЗАЛИШАЙТЕСЬ ЯКОМОГА ДОВШЕ НА РОЗДАЧІ!

СКАЧАВ САМ - ДАЙ СКАЧАТИ ІНШИМ


Срібний реліз (на рейтинг впливає 50% завантаженого)
 Трекер:    Зареєстрований   

Завантажити / скачати фільм українською



відео для новачків



 Зареєстрований:   2016-08-28 17:57
 Розмір:   9.68 GB 
 Оцінка фільму:   2.5/10 (Голосів: 12)
   
Anonymous 







2016-08-28 16:46  
Також виклав ремукс.
Ваш часовий пояс: GMT + 2 Години

Нова тема   Відповісти