Завантажити та скачати торренти українською


Україна. Повернення своєї історії (3 част.) (2016) 1080p

Нові коментарі

Нова тема   Відповісти

Увійдіть, щоб проголосувати
Автор Повідомлення
laser 
VIP


З нами з: 22.03.08
Востаннє: 17.01.17
Повідомлень: 297

2016-08-27 14:17  
Україна. Повернення своєї історії (3 част.) (2016) 1080p

Україна. Повернення своєї історії (3 част.) (2016) 1080p


Жанр: документальний, історичний
Країна: Україна

Телеканал / кіностудія: 1+1
Режисер: Акім Галімов, Дарія Саричева
Сюжет:
Україна. Повернення своєї історії – документальний фільм-дослідження. Наша історія – лише набір вигаданих фактів та чужих героїв. Протягом століть існували таємні групи людей, які створювали для українців паралельну реальність. 400 років ними керував один центр. Архів репресивних органів ЦК Компартії України розсекретили всього торік. За справою одного етнографа почали відкриватися масштабні фальсифікації історії. Чому вбивали тих, хто збирав по селах народні обряди? Ким насправді була дружина Ярослава Мудрого, яку росіяни назвали своєю святою, та де вона похована? Звідки насправді був родом Ілля Муромець? Ми зібрали команду науковців, які вперше за 1000 років розкриють історичну аферу.


Тривалість: 1 част. - 35хв., 2 - 51 хв, 3 - 13 хв.
Якість:
Відео:
кодек:
розмір кадру: 1920 х 1080
бітрейт: 3 Мб/с

Аудіо:
мова: українська
переклад: оригінал
кодек: 2.0
бітрейт: 126 кб/с
MediaInfo

General
Unique ID : 224791164548232489190106393840453853252 (0xA91D3418D1BB6394BCBEA2A05E62A044)
Complete name : F:\films\DOC\Україна. Повернення своєї історії. 1+1\Україна. Повернення своєї історії. Частина 1.mkv
Format : Matroska
Format version : Version 4 / Version 2
File size : 771 MiB
Duration : 34mn 48s
Overall bit rate : 3 097 Kbps
Encoded date : UTC 2016-08-27 07:49:17
Writing application : mkvmerge v9.4.0 ('Knurl') 64bit
Writing library : libebml v1.3.4 + libmatroska v1.4.5

Video
ID : 2
Format : AVC
Format/Info : Advanced Video Codec
Format profile : [email protected]
Format settings, CABAC : Yes
Format settings, ReFrames : 2 frames
Codec ID : V_MPEG4/ISO/AVC
Duration : 34mn 48s
Bit rate : 2 969 Kbps
Width : 1 920 pixels
Height : 1 080 pixels
Display aspect ratio : 16:9
Frame rate mode : Constant
Frame rate : 25.000 fps
Color space : YUV
Chroma subsampling : 4:2:0
Bit depth : 8 bits
Scan type : Progressive
Bits/(Pixel*Frame) : 0.057
Stream size : 739 MiB (96%)
Default : Yes
Forced : No
Color range : Limited
Color primaries : BT.709
Transfer characteristics : BT.709
Matrix coefficients : BT.709

Audio
ID : 1
Format :
Format/Info : Advanced Audio Codec
Format profile : LC
Codec ID : A_AAC
Duration : 34mn 48s
Bit rate : 126 Kbps
Channel(s) : 2 channels
Channel positions : Front: L R
Sampling rate : 44.1 KHz
Frame rate : 43.066 fps (1024 spf)
Compression mode : Lossy
Stream size : 31.3 MiB (4%)
Default : Yes
Forced : No
Скріншоти










Джерело: youtube.com/user/1plus1channel/videos
Особиста оцінка: 10 - без зайвих вагань рекомендую всім!


Фріліч (завантажене не впливає на рейтинг)
 Трекер:    Зареєстрований   

Завантажити / скачати фільм українською



відео для новачків



 Зареєстрований:   2016-08-27 14:17
 Розмір:   2.06 GB 
 Оцінка фільму:   9/10 (Голосів: 19)
   
laser 
VIP


З нами з: 22.03.08
Востаннє: 17.01.17
Повідомлень: 297

2016-08-27 14:19  
фільм сподобався, тому додаю 1080р версію до вже існуючого релізу http://toloka.to/t75594?sid=9f11a308af24acdae640cc0043b907bd
dr.vepen.toloka 
Новенький


З нами з: 20.08.16
Востаннє: 26.12.16
Повідомлень: 1

2016-08-28 19:30  
laser
!стор!я це наше все!!!

11FrYkT 
Модератор відео


З нами з: 20.02.11
Востаннє: 18.01.17
Повідомлень: 3300

2016-08-28 20:22  
laser , додайте будь ласка МІ
andriy_nv 
VIP


З нами з: 27.06.08
Востаннє: 18.01.17
Повідомлень: 477

2016-08-29 20:44  
Можна з трьох частин зробити одну? Щоби вийшов плавний фільм одним файлом. Без маленького повтору на початку наступної серії.
laser 
VIP


З нами з: 22.03.08
Востаннє: 17.01.17
Повідомлень: 297

2016-08-29 21:25  
andriy_nv, теж думав над цим. але без повторного перекодування склеїти не вийде. перекодовувати не охота. якість буде гірша а розмір більший. + купа затраченого часу.
lpershyi 
Попереджень: 2
Попереджень: 2 


З нами з: 04.01.11
Востаннє: 27.12.16
Повідомлень: 2622

2016-08-29 22:53  
laser написано:
мова: українська
не зовсім правда, є багато російського звуку!

Щоб не було пустих слів, пропоную творцям 1+1 висловлювати своє обурення щодо недоробленої програми. Коментуючи ми збільшуємо кількість переглядів відео з українським звуком. Щоб ті три серії, в яких присутня іноземна мова російська на ютюбе каналі не популяризувати ставимо питання та обурення під цим відео:

(link)

Додано через 2 хвилини 6 секунд:

laser написано:
купа затраченого часу.
коли буде повний дубляж українською, тоді я візмуся за склеювання, але те, що показали по телебаченні не варте уваги.
maxer131 
Новенький


З нами з: 05.10.15
Востаннє: 16.01.17
Повідомлень: 19

2016-08-31 16:30  
Україні вже давно пора повернути вкрадену частину назви "Україна-Русь"!
Last Samurai 
Новенький


З нами з: 21.02.15
Востаннє: 18.01.17
Повідомлень: 5

2016-08-31 22:40  
Якісна, цікава та пізнавальна докуметалка, рекомендую кожному!
P.S: Було б добре якби хтось змонтував разом фільм, та ще й видалив ті частини в яких йде повтор (що буде після реклами/що було до реклами)

VinnOl 
Новенький


З нами з: 21.04.11
Востаннє: 15.01.17
Повідомлень: 5

2016-09-01 11:18  
У першому фільмі відсутній звук. Перевірте, будь ласка.
laser 
VIP


З нами з: 22.03.08
Востаннє: 17.01.17
Повідомлень: 297

2016-09-01 20:13  
VinnOl
у мене на ПК нормально грають всі частини

Gwedolina 
Новенький


З нами з: 15.06.11
Востаннє: 18.01.17
Повідомлень: 22

2016-09-06 12:26  
Фільм хороший, але теми, розглянуті у ньому - лише краплина у морі, адже загадки і перекручені факти у нашій історії на кожному кроці! Сподіваюся, 1+1 на цьому не зупиниться.
VinnOl 
Новенький


З нами з: 21.04.11
Востаннє: 15.01.17
Повідомлень: 5

2016-09-09 08:24  
laser, вибачте. Це була у мене проблема.
poolvetrum 
Поважний учасник


З нами з: 01.06.14
Востаннє: 18.01.17
Повідомлень: 219

2016-09-20 00:02  
Дуже вразив монтаж і якість зйомок - це високий рівень. Фільм вартий перегляду однозначно - наповнений цікавими фактами і гіпотезами, що спонукають до певних думок. Єдиний мінус для мене, те, що автори фільму пройшлися галопом по темах і століттях нашої історії не занурюючись глибоко в розглянуті проблеми. Ну, наприклад, Софіївське графіті. Це ж просто, як серпом по яйцях російської пропаганди в питанні начебто штучності української мови. Чи про комісії, які створювали чи не кожне століття для написання потрібної історії. Автори висвітлюють ці теми якось побіжно. Думаю, краще було б якби взяли конкретну проблему і присвятили їй півтори години з детальним і глибоким аналізом. Втім, подивимось як буде далі. Автор запевняє, що буде продовження.
Цікаве інтерв'ю з автором проекту Акімом Галімовим
http://detector.media/production/article/118864/2016-09-18-akim-galimov-mi-vidshtovkhuvalisya-vid-togo-na-chomu-bazuetsya-russkii-mir/

Ваш часовий пояс: GMT + 2 Години

Нова тема   Відповісти