Завантажити та скачати торренти українською


Загублений табір / Camp Nowhere (1994) Remux 1080p Ukr/Eng | Sub Eng

Нові коментарі

Нова тема   Відповісти
Автор Повідомлення
Anonymous 







2016-08-26 09:50  
Загублений табір / Camp Nowhere (1994) Remux Ukr/Eng | Sub Eng

Загублений табір / Camp Nowhere (1994) Remux 1080p Ukr/Eng | Sub Eng

Альтернативний постер


повнорозмірні зображення відкриються по кліку (з натиснутим CTRL чи кліком середньою кнопкою мишки - у новій вкладці)


Жанр: сімейний, пригодницький, комедія
Країна: США



Кінокомпанія: Hollywood Pictures
Режисер: Джонатан Принс / Jonathan Prince
Актори: Крістофер Ллойд / Christopher Lloyd, Джонатан Джексон / Jonathan Jackson, Венді Маккена / Wendy Makkena, М. Еммет Волш / M. Emmet Walsh, Джон Путч / John Putch, Пітер Сколарі / Peter Scolari, Ромі Віндзор / Romy Windsor, Елісон Мак / Allison Mack, Том Вілсон / Thomas F. Wilson, Джесіка Альба / Jessica Alba та інші

Сюжет:
Літній табір - відпочинок тільки з першого погляду. Самі діти мають на цей рахунок свою думку, тому, коли Морріс Хіммель дізнається, що йому разом з друзями доведеться провести літо на такому «відпочинку», він вирішує діяти. Спільно компанія вирішується на веселу авантюру: вони організують свій власний табір, райський куточок без батьків з морем розваг. Їм вдається переконати довірливих батьків в існуванні міфічного куточка дитячого відпочинку і навіть витратити їх гроші на це. Однак попереду друзів чекає проблема, що загрожує обернутися великими неприємностями: наближається батьківський день, коли обман може легко розкритися.


Рейтинг MPAA: PG - рекомендується присутність батьків
Вікова категорія: 6+

Тривалість: 01:35:47
Якість: Remux
Відео:
кодек:
розмір кадру: 1920 х 1080
бітрейт: 19 Мбіт/с

Аудіо # 1:
мова: українська
переклад: багатоголосий закадровий
кодек: 2.0
бітрейт: 192 Кбіт/с
примітка: присутні два коротких (~1 хв.) фрагмента без перекладу - на них є форсовані субтитри

Аудіо # 2:
мова: англійська
переклад: оригінал
кодек: -HD MA 2.0
бітрейт: 2137 Кбіт/с

Субтитри #1:
мова: українська (форсовані) - на два коротких фрагменти без перекладу
тип: пререндерні
формат: *.PGS

Субтитри # 2:
мова: англійська (повні)
тип: пререндерні
формат: *.PGS
MediaInfo
Код:
Complete name               : Camp Nowhere (1994) [Ukr,Eng sub.Eng] Remux 1080p [Hurtom].mkv
Format                      : Matroska
Format version              : Version 4 / Version 2
File size                   : 14.3 GiB
Duration                    : 1 h 35 min
Overall bit rate mode       : Variable
Overall bit rate            : 21.3 Mb/s
Movie name                  : Загублений табір / Camp Nowhere (1994) [Ukr,Eng sub.Eng] Remux [Hurtom-igor911]
Writing library             : libebml v1.3.4 + libmatroska v1.4.5
Cover                       : Yes
Attachments                 : cover.jpg

Video
ID                          : 1
Format                      : AVC
Format/Info                 : Advanced Video Codec
Format profile              : [email protected]
Format settings, CABAC      : Yes
Format settings, ReFrames   : 4 frames
Codec ID                    : V_MPEG4/ISO/AVC
Duration                    : 1 h 35 min
Bit rate mode               : Variable
Bit rate                    : 19.0 Mb/s
Maximum bit rate            : 25.0 Mb/s
Width                       : 1 920 pixels
Height                      : 1 080 pixels
Display aspect ratio        : 16:9
Frame rate mode             : Constant
Frame rate                  : 23.976 (24000/1001) FPS
Standard                    : NTSC
Color space                 : YUV
Chroma subsampling          : 4:2:0
Bit depth                   : 8 bits
Scan type                   : Progressive
Bits/(Pixel*Frame)          : 0.382
Stream size                 : 12.7 GiB (89%)
Title                       : Загублений табір / Camp Nowhere (1994) Remux 1080p [HDClub]
Language                    : English
Default                     : Yes
Forced                      : No
Color range                 : Limited
Color primaries             : BT.709
Transfer characteristics    : BT.709
Matrix coefficients         : BT.709

Audio #1
ID                          : 2
Format                      : AC-3
Format/Info                 : Audio Coding 3
Mode extension              : CM (complete main)
Format settings, Endianness : Big
Codec ID                    : A_AC3
Duration                    : 1 h 35 min
Bit rate mode               : Constant
Bit rate                    : 192 kb/s
Channel(s)                  : 2 channels
Channel positions           : Front: L R
Sampling rate               : 48.0 kHz
Frame rate                  : 31.250 FPS (1536 spf)
Compression mode            : Lossy
Stream size                 : 132 MiB (1%)
Title                       : MVO [Novyj] 2.0 192 kbps [Hurtom-NemoInFire,POMEO]
Language                    : Ukrainian
Default                     : Yes
Forced                      : No

Audio #2
ID                          : 3
Format                      :
Format/Info                 : Digital Theater Systems
Format profile              : MA / Core
Mode                        : 16
Format settings, Endianness : Big
Codec ID                    : A_DTS
Duration                    : 1 h 35 min
Bit rate mode               : Variable / Constant
Bit rate                    : 2 137 kb/s / 1 509 kb/s
Channel(s)                  : 2 channels
Channel positions           : Front: L R
Sampling rate               : 48.0 kHz
Frame rate                  : 93.750 FPS (512 spf)
Bit depth                   : 24 bits
Compression mode            : Lossless / Lossy
Stream size                 : 1.43 GiB (10%)
Title                       : Original, -HD MA 2.0 2137 kbps
Language                    : English
Default                     : No
Forced                      : No

Text #1
ID                          : 4
Format                      : PGS
Muxing mode                 : zlib
Codec ID                    : S_HDMV/PGS
Codec ID/Info               : Picture based subtitle format used on BDs/HD-DVDs
Duration                    : 29 min
Bit rate                    : 332 b/s
Count of elements           : 30
Stream size                 : 71.4 KiB (0%)
Title                       : Ukr forced
Language                    : Ukrainian
Default                     : Yes
Forced                      : Yes

Text #2
ID                          : 5
Format                      : PGS
Muxing mode                 : zlib
Codec ID                    : S_HDMV/PGS
Codec ID/Info               : Picture based subtitle format used on BDs/HD-DVDs
Duration                    : 1 h 35 min
Bit rate                    : 15.4 kb/s
Count of elements           : 2934
Stream size                 : 10.5 MiB (0%)
Title                       : Eng full
Language                    : English
Default                     : No
Forced                      : No


Джерело: &
Подяка п.POMEO за запис та п.NemoInFire за зведення української доріжки

Особиста оцінка: 8 - рекомендую всім дітям та їх батькам

ЗАЛИШАЙТЕСЬ ЯКОМОГА ДОВШЕ НА РОЗДАЧІ!
СКАЧАВ САМ - ДАЙ СКАЧАТИ ІНШИМ


Золотий реліз (завантажене не впливає на рейтинг)
 Трекер:    Зареєстрований   

Завантажити / скачати фільм українською



відео для новачків



 Зареєстрований:   2016-08-26 09:50
 Розмір:   14.28 GB 
 Оцінка фільму:   3.1/10 (Голосів: 13)
   
Інші релізи
   Загублений табір / Camp Nowhere (1994) [MP4, 480x] apvAltisimo  0 / 0   434 MB   2016-09-17 15:07 
   Загублений табір / Camp Nowhere (1994) AVC Ukr/Eng | Sub Eng igor911  1 / 0   3.47 GB   2016-08-06 17:45 
   Загублений табір / Camp Nowhere (1994) 720p Ukr/Eng | Sub Eng igor911  2 / 0   6.41 GB   2016-08-06 17:30 
   Загублений табір / Camp Nowhere (1994) NemoInFire  5 / 0   1.46 GB   2013-08-17 11:04 
Anonymous 







2016-08-26 21:03  
Не зможу довго роздавати реліз, сідуватиму тиждень-два, тому прошу підтримати.
Ваш часовий пояс: GMT + 2 Години

Нова тема   Відповісти