Завантажити та скачати торренти українською


Ілюзія обману 2 / Now You See Me 2 (2016) AVC

Нові коментарі

Нова тема   Відповісти
Автор Повідомлення
Drool 
VIP


З нами з: 17.04.10
Востаннє: 02.12.16
Повідомлень: 1262

2016-08-26 08:16  
Ілюзія обману 2 / Now You See Me 2 (2016) AVC

Жанр: екшн, пригодницький, комедія, детектив
Країна: США, Китай, Велика Британія, Канада



Кінокомпанія: K/O Paper Products, Lionsgate, Summit Entertainment
Режисер: Джон М. Чу
Актори: Джессі Айзенберґ, Марк Руффало, Вуді Гаррельсон, Дейв Франко, Деніел Редкліфф, Ліззі Каплан, Джей Чоу, Санаа Летен, Майкл Кейн, Морґан Фрімен

Сюжет:
«Чотири вершники», команда кращих ілюзіоністів світу, знову разом! Їхня «магія» стала ще більш досконалою, а вороги - небезпечнішими. Цього разу вони повинні врятувати свою репутацію і вивести на чисту воду жорстокого техномагната...


Тривалість: 02:09:30
Якість: AVC
Відео:
кодек:
розмір кадру: 1152x648
бітрейт: 4326 кб/с

Аудіо:
мова: українська
переклад: професійний дубльований
кодек: 2.0
бітрейт: 192 кб/с
MediaInfo
General
Unique ID : 99420780900385466066983544361587751027 (0x4ACBBEF380713443557579B4ED4EB873)
Complete name : /mnt/disk_e/Video/Films/Now.You.See.Me.2.2016.Ukr.Dub-Line.AVC.mkv
Format : Matroska
Format version : Version 4 / Version 2
File size : 4.17 GiB
Duration : 2h 9mn
Overall bit rate : 4 610 Kbps
Movie name : Ілюзія обману 2 / Now You See Me 2 (2016) AVC
Encoded date : UTC 2016-08-25 10:31:57
Writing application : mkvmerge v9.2.0 ('Photograph') 64bit
Writing library : libebml v1.3.3 + libmatroska v1.4.4
Attachements : nysm2_1_550.jpg
DURATION : 02:09:02.112000000
NUMBER_OF_FRAMES : 241941
NUMBER_OF_BYTES : 185810688
_STATISTICS_WRITING_APP : mkvmerge v9.2.0 ('Photograph') 64bit
_STATISTICS_WRITING_DATE_UTC : 2016-08-25 10:31:57
_STATISTICS_TAGS : BPS DURATION NUMBER_OF_FRAMES NUMBER_OF_BYTES

Video
ID : 1
Format : AVC
Format/Info : Advanced Video Codec
Format profile : [email protected]
Format settings, CABAC : Yes
Format settings, ReFrames : 10 frames
Codec ID : V_MPEG4/ISO/AVC
Duration : 2h 9mn
Bit rate : 4 326 Kbps
Width : 1 152 pixels
Height : 648 pixels
Display aspect ratio : 16:9
Frame rate mode : Constant
Frame rate : 24.000 fps
Color space : YUV
Chroma subsampling : 4:2:0
Bit depth : 8 bits
Scan type : Progressive
Bits/(Pixel*Frame) : 0.241
Stream size : 3.91 GiB (94%)
Title : Ілюзія обману 2 / Now You See Me 2 (2016) AVC
Writing library : core 148 r2638 7599210
Encoding settings : cabac=1 / ref=10 / deblock=1:-3:-2 / analyse=0x3:0x133 / me=umh / subme=11 / psy=1 / psy_rd=1.00:0.00 / mixed_ref=1 / me_range=32 / chroma_me=1 / trellis=2 / 8x8dct=1 / cqm=0 / deadzone=21,11 / fast_pskip=1 / chroma_qp_offset=-2 / threads=6 / lookahead_threads=1 / sliced_threads=0 / nr=0 / decimate=1 / interlaced=0 / bluray_compat=0 / constrained_intra=0 / bframes=12 / b_pyramid=2 / b_adapt=2 / b_bias=0 / direct=3 / weightb=1 / open_gop=0 / weightp=2 / keyint=240 / keyint_min=23 / scenecut=40 / intra_refresh=0 / rc_lookahead=60 / rc=crf / mbtree=1 / crf=17.9 / qcomp=0.60 / qpmin=0 / qpmax=69 / qpstep=4 / vbv_maxrate=62500 / vbv_bufsize=78125 / crf_max=0.0 / nal_hrd=none / filler=0 / ip_ratio=1.40 / aq=1:1.00
Default : Yes
Forced : Yes

Audio
ID : 2
Format : AC-3
Format/Info : Audio Coding 3
Mode extension : CM (complete main)
Format settings, Endianness : Big
Codec ID : A_AC3
Duration : 2h 9mn
Bit rate mode : Constant
Bit rate : 192 Kbps
Channel(s) : 2 channels
Channel positions : Front: L R
Sampling rate : 48.0 KHz
Compression mode : Lossy
Stream size : 178 MiB (4%)
Title : Ukrainian
Language : Ukrainian
Default : Yes
Forced : Yes
Скріншоти



Джерело:
Особиста оцінка: 8 - мені сподобалося


 Трекер:    Зареєстрований   

Завантажити / скачати фільм українською



відео для новачків



 Зареєстрований:   2016-08-26 08:16
 Розмір:   4.17 GB 
 Оцінка фільму:   9.3/10 (Голосів: 22)
   
Інші релізи
   Ілюзія обману 2 / Now You See Me 2 (2016) 1080p Ukr/Eng | Sub Eng 11FrYkT  17 / 0   14.02 GB   2016-08-23 18:27 
   Ілюзія обману 2 / Now You See Me 2 (2016) 720p Ukr/Eng | Sub Eng 11FrYkT  41 / 0   6.27 GB   2016-08-23 18:23 
   Ілюзія обману 2 / Now You See Me 2 (2016) Ukr/Eng Gelios  112 / 0   2.18 GB   2016-08-23 18:17 
   Ілюзія обману 2 / Now You See Me 2 (2016) AngryBirdsUA  36 / 0   1.46 GB   2016-08-23 18:16 
Drool 
VIP


З нами з: 17.04.10
Востаннє: 02.12.16
Повідомлень: 1262

2016-08-26 08:30  
Роздача ведеться через DHT, тому вмикайте, якщо вимкнено.
Drool 
VIP


З нами з: 17.04.10
Востаннє: 02.12.16
Повідомлень: 1262

2016-08-29 09:59  
З'явився US Transfer. Судфчи зі скріншотів, це не в російському трансфері обрізали з боків, а в американському згори та знизу обрізали. Ось порівняння скріншотів: http://screenshotcomparison.com/comparison/182741
Ваш часовий пояс: GMT + 2 Години

Нова тема   Відповісти