Завантажити та скачати торренти українською


Пісні про кохання / Les chansons d'amour (2007) 720p Fre | sub Ukr

Нові коментарі

Нова тема   Відповісти
Автор Повідомлення
jamas 
Новенький


З нами з: 09.08.16
Востаннє: 02.09.16
Повідомлень: 1

2016-08-24 11:41  
Пісні про кохання / Les chansons d'amour (2007) 720p Fre | sub Ukr

Пісні про кохання / Les chansons d'amour (2007) 720p Fre | sub Ukr


Жанр: драма, музичний, романтичний
Країна: Франція



Кінокомпанія: Alma Films, Flach Film, Centre National de la Cinématographie (CNC)
Режисер: Крістоф Оноре
Актори: Луї Ґарель, Людівін Саньє, К'яра Мастроянні, Клотильд Есме, Ґреґуар Лепренс-Ренґе та інші

Сюжет:
Історія трьох коханців, що живуть у Парижі.

Фільм отримав нагороду Сезар 2008 року за кращу музику.

"Пісні про кохання" логічно продовжують традиції французького кінематографу, зокрема періоду нової хвилі, хоча б через алюзії на "Шербурзькі парасольки" Жака Демі чи "Маму і повію" Ежена Осташа. Детальніше - на Вікіпедії https://fr.wikipedia.org/wiki/Les_Chansons_d%27amour


Тривалість: 01:31:43
Якість:
Відео:
кодек:
розмір кадру: 1280 х 692
бітрейт: 6500 кб/с

Аудіо:
мова: французька
переклад: оригінал
кодек: 5.1
бітрейт: 1509 кб/с

Субтитри:
мова: українська
тип: програмні (м'які)
формат: *.srt
Скріншоти


MediaInfo
Format : Matroska
Format version : Version 4 / Version 2
File size : 5.13 GiB
Duration : 1h 31mn
Overall bit rate : 8 008 Kbps
Movie name : Les chansons d'amour (2007)
Encoded date : UTC 2016-08-10 13:06:37
Writing application : mkvmerge v9.3.1 ('Mask Machine') 32bit
Writing library : libebml v1.3.4 + libmatroska v1.4.5
DURATION : 01:29:54.113000000
NUMBER_OF_FRAMES : 1221
NUMBER_OF_BYTES : 56986
_STATISTICS_WRITING_APP : mkvmerge v9.3.1 ('Mask Machine') 32bit
_STATISTICS_WRITING_DATE_UTC : 2016-08-10 13:06:37
_STATISTICS_TAGS : BPS DURATION NUMBER_OF_FRAMES NUMBER_OF_BYTES

Video
ID : 1
Format : AVC
Format/Info : Advanced Video Codec
Format profile : [email protected]
Format settings, CABAC : Yes
Format settings, ReFrames : 9 frames
Codec ID : V_MPEG4/ISO/AVC
Duration : 1h 31mn
Bit rate : 6 500 Kbps
Width : 1 280 pixels
Height : 692 pixels
Display aspect ratio : 1.85:1
Frame rate mode : Constant
Frame rate : 25.000 fps
Color space : YUV
Chroma subsampling : 4:2:0
Bit depth : 8 bits
Scan type : Progressive
Bits/(Pixel*Frame) : 0.294
Stream size : 4.06 GiB (79%)
Title : Les chansons d'amour (2007)
Writing library : core 125 r2208 d9d2288
Encoding settings : cabac=1 / ref=9 / deblock=1:-3:-3 / analyse=0x3:0x133 / me=umh / subme=11 / psy=1 / psy_rd=1.10:0.00 / mixed_ref=1 / me_range=96 / chroma_me=1 / trellis=2 / 8x8dct=1 / cqm=0 / deadzone=21,11 / fast_pskip=0 / chroma_qp_offset=-2 / threads=12 / lookahead_threads=2 / sliced_threads=0 / nr=0 / decimate=0 / interlaced=0 / bluray_compat=0 / constrained_intra=0 / bframes=6 / b_pyramid=2 / b_adapt=2 / b_bias=0 / direct=3 / weightb=1 / open_gop=0 / weightp=2 / keyint=250 / keyint_min=25 / scenecut=40 / intra_refresh=0 / rc_lookahead=40 / rc=2pass / mbtree=0 / bitrate=6500 / ratetol=1.0 / qcomp=0.60 / qpmin=0 / qpmax=69 / qpstep=4 / cplxblur=20.0 / qblur=0.5 / vbv_maxrate=50000 / vbv_bufsize=62500 / nal_hrd=none / ip_ratio=1.40 / pb_ratio=1.30 / aq=2:0.80
Language : French
Default : Yes
Forced : No
Color primaries : BT.709
Transfer characteristics : BT.709
Matrix coefficients : BT.709
DURATION : 01:31:43.080000000
NUMBER_OF_FRAMES : 137577
NUMBER_OF_BYTES : 4468951720
_STATISTICS_WRITING_APP : mkvmerge v9.3.1 ('Mask Machine') 32bit
_STATISTICS_WRITING_DATE_UTC : 2016-08-10 13:06:37
_STATISTICS_TAGS : BPS DURATION NUMBER_OF_FRAMES NUMBER_OF_BYTES

Audio
ID : 2
Format :
Format/Info : Digital Theater Systems
Mode : 16
Format settings, Endianness : Big
Codec ID : A_DTS
Duration : 1h 31mn
Bit rate mode : Constant
Bit rate : 1 509 Kbps
Channel(s) : 6 channels
Channel positions : Front: L C R, Side: L R, LFE
Sampling rate : 48.0 KHz
Bit depth : 24 bits
Compression mode : Lossy
Stream size : 990 MiB (19%)
Title : Original
Language : French
Default : Yes
Forced : No

Text
ID : 3
Format : UTF-8
Codec ID : S_TEXT/UTF8
Codec ID/Info : UTF-8 Plain Text
Title : Ukrainian
Language : Ukrainian
Default : Yes
Forced : No

Menu
00:00:00.000 : en:00:00:00.000
00:07:07.280 : en:00:07:07.280
00:20:39.960 : en:00:20:39.960
00:25:05.200 : en:00:25:05.200
00:27:48.280 : en:00:27:48.280
00:35:11.520 : en:00:35:11.520
00:40:15.520 : en:00:40:15.520
00:53:39.920 : en:00:53:39.920
00:59:45.640 : en:00:59:45.640
01:05:12.360 : en:01:05:12.360
01:14:05.840 : en:01:14:05.840
01:20:18.160 : en:01:20:18.160
01:23:37.840 : en:01:23:37.840
01:26:39.600 : en:01:26:39.600

Джерело: сам удома продакшн
Особиста оцінка: 10 - без зайвих вагань рекомендую всім!


Золотий реліз (завантажене не впливає на рейтинг)
 Трекер:    Зареєстрований   

Завантажити / скачати фільм українською



відео для новачків



 Зареєстрований:   2016-08-24 11:41
 Розмір:   5.13 GB 
 Оцінка фільму:   10/10 (Голосів: 2)
   
11FrYkT 
Модератор відео


З нами з: 20.02.11
Востаннє: 10.12.16
Повідомлень: 3135

2016-08-24 16:03  
jamas , додайте звіт медіаінфо
Ваш часовий пояс: GMT + 2 Години

Нова тема   Відповісти