Завантажити та скачати торренти українською


Бійтесь ходячих мерців (Сезон 2) / Fear the Walking Dead (Season 2) (2016) AVC

Нові коментарі

Нова тема   Відповісти
Автор Повідомлення
krigg070 
Відео Гуртом - фільмокрай
Відео Гуртом - фільмокрай


З нами з: 29.10.14
Востаннє: 03.12.16
Повідомлень: 346

2016-08-23 20:13  
Бійтесь ходячих мерців (Сезон 2) / Fear the Walking Dead (Season 2) (2016) AVC


Жанр: драма, жахи, трилер
Країна: США



Кінокомпанія: AMC
Режисер: Адам Девідсон, Карі Скогланд, Стефан Шварц
Актори: Кім Діккенс, Кліф Кертіс, Френк Діллейн, Алісія Дебнем-Кері, Елізабет Родрігес, Мерседес Масон, Лоренцо Джеймс Хенрі, Рубен Бладес, Колман Домінго, Патрісія Реєс Спіндола та інші

Сюжет:
Дія розгортається в недалекому майбутньому. Територія колись пахучого Лос-Анджелеса стала зоною сущого кошмару. До апокаліпсису призвела поява величезної кількості бродячих небіжчиків. Ці моторошні створіння стали результатом впливу новітнього вірусу, не відомого раніше науці. Засобів боротьби з напастю поки немає. Одні змирилися з гіркою долею і перетворилися в зомбі або загинули в жахливих муках. Інші роблять відчайдушні спроби вижити в цьому пеклі. Від колишнього райського куточка планети не залишилося і сліду. Ті, що вижили з гіркою іронією згадують кращі часи, усвідомлюючи, наскільки банальними були колишні проблеми.
Перелік серій
    Fear the Walking Dead. Season 2, Episode 01. Monster
    Fear the Walking Dead. Season 2, Episode 02. We All Fall Down
    Fear the Walking Dead. Season 2, Episode 03. Ouroboros
    Fear the Walking Dead. Season 2, Episode 04. Blood in the Streets
    Fear the Walking Dead. Season 2, Episode 05. Captive
    Fear the Walking Dead. Season 2, Episode 06. Sicut Cervus
    Fear the Walking Dead. Season 2, Episode 07. Shiva
    Fear the Walking Dead. Season 2, Episode 08. Grotesque
    Fear the Walking Dead. Season 2, Episode 09. Los Muertos
    Fear the Walking Dead. Season 2, Episode 10. Do Not Disturb
    Fear the Walking Dead. Season 2, Episode 11. Pablo and Jessica
    Fear the Walking Dead. Season 2, Episode 12. Pillar of Salt
    Fear the Walking Dead. Season 2, Episode 13. Date of Death
    Fear the Walking Dead. Season 2, Episode 14. Wrath
    Fear the Walking Dead. Season 2, Episode 15. North
Тривалість: 1 серія: ~45 хв. (цілком серій: 15)
Якість: AVC
Відео:
кодек:
розмір кадру: 720 х 400
бітрейт: ~1200 кб/с

Аудіо:
мова: українська
переклад: багатоголосий закадровий
кодек: 2.0
бітрейт: 192 кб/с (з 8 серії - 128 кб/c)
Скріншоти
MediaInfo
Код:
Video
ID                             : 1
Format                         : AVC
Format/Info                    : Advanced Video Codec
Format profile                 : [email protected]
Format settings, CABAC         : Yes
Format settings, ReFrames      : 5 frames
Codec ID                       : V_MPEG4/ISO/AVC
Duration                       : 42mn 49s
Bit rate                       : 1 349 Kbps
Width                          : 720 pixels
Height                         : 400 pixels
Display aspect ratio           : 16:9
Original display aspect ratio  : 16:9
Frame rate mode                : Constant
Frame rate                     : 23.976 fps
Color space                    : YUV
Chroma subsampling             : 4:2:0
Bit depth                      : 8 bits
Scan type                      : Progressive
Bits/(Pixel*Frame)             : 0.195
Stream size                    : 413 MiB (86%)
Writing library                : core 148 r2597M e86f3a1
Encoding settings              : cabac=1 / ref=5 / deblock=1:-1:-1 / analyse=0x3:0x113 / me=umh / subme=9 / psy=1 / psy_rd=1.00:0.15 / mixed_ref=1 / me_range=16 / chroma_me=1 / trellis=2 / 8x8dct=1 / cqm=0 / deadzone=21,11 / fast_pskip=1 / chroma_qp_offset=-3 / threads=12 / lookahead_threads=1 / sliced_threads=0 / nr=0 / decimate=1 / interlaced=0 / bluray_compat=0 / constrained_intra=0 / bframes=3 / b_pyramid=2 / b_adapt=2 / b_bias=0 / direct=3 / weightb=1 / open_gop=0 / weightp=2 / keyint=250 / keyint_min=23 / scenecut=40 / intra_refresh=0 / rc_lookahead=50 / rc=crf / mbtree=1 / crf=17.0 / qcomp=0.60 / qpmin=0 / qpmax=69 / qpstep=4 / ip_ratio=1.40 / aq=1:1.00
Language                       : English
Default                        : Yes
Forced                         : No

Audio
ID                             : 2
Format                         : AC-3
Format/Info                    : Audio Coding 3
Mode extension                 : CM (complete main)
Format settings, Endianness    : Big
Codec ID                       : A_AC3
Duration                       : 42mn 49s
Bit rate mode                  : Constant
Bit rate                       : 192 Kbps
Channel(s)                     : 2 channels
Channel positions              : Front: L R
Sampling rate                  : 48.0 KHz
Frame rate                     : 31.250 fps (1536 spf)
Compression mode               : Lossy
Stream size                    : 58.8 MiB (12%)
Title                          : 2.0 @ 192 kbps - AMC
Language                       : Ukrainian
Default                        : Yes
Forced                         : No
Джерела та подяки: &&


Бронзовий реліз (на рейтинг впливає 75% завантаженого)
 Трекер:    Зареєстрований   

Завантажити / скачати серіал українською



відео для новачків



 Зареєстрований:   2016-10-03 13:28
 Розмір:   5.5 GB 
 Оцінка серіалу:   8.7/10 (Голосів: 22)
   
don pedro 
Попереджень: 1
Попереджень: 1 


З нами з: 29.06.11
Востаннє: 03.12.16
Повідомлень: 8722

2016-08-23 20:26  
Полюбив я цей серіал після восьмої серії другого сезону. Якось тут все просто, людяно і близько мені. А куленепробивні Рік, Дерел та інші Мішони якось приїлись і стали аж надто неправдоподібними у своїй крутизні. А от герої "Бійтесь ходячих мерців" якісь рідніші та правдивіші. Звичайні люди у страшній біді серед зруйнованого світу. Та й знято якогось вигадливіше (хоч і не так дорого і масштабно).
OL3X 
Поважний учасник


З нами з: 25.11.15
Востаннє: 03.12.16
Повідомлень: 223

2016-08-23 21:53  
don pedro, проблема спін-офу в дурості вчинків головних героїв. Все виглядає якось занадто награним.
don pedro 
Попереджень: 1
Попереджень: 1 


З нами з: 29.06.11
Востаннє: 03.12.16
Повідомлень: 8722

2016-08-23 22:03  
OL3X
А я переконаний, що звичайна людина під час кінецьсвіття якраз ухвалювала не надто розумні рішення і здійснювала тупі вчинки. Не забувайте: ви живете у світі Трампа, ПуSSіна, диктатури, людей, що вірять у перемогу над казино, грають до смерті від виснаження у онлайн-ігри, вірять у те, що у порно "все насправді" і "заряджають" воду від телевізора. Після того, як я власними очима бачив натовпи бидла, які чавили один одного прориваючись на "оздоровчі" сеанси Кашпіровського - вірю в усе. Боюсь собі уявити, що почне творити звичайний обиватель у час цілком буденного лиха. Не кажучи вже про навалу ожилих мерців. ГГ серіалу ще доволі гідно тримаються - мають почуття, мрії та бажання, що виходять за межі простого виживання.

krigg070 
Відео Гуртом - фільмокрай
Відео Гуртом - фільмокрай


З нами з: 29.10.14
Востаннє: 03.12.16
Повідомлень: 346

2016-08-29 22:54  
+ 9
[Captain] 
Попереджень: 1
Попереджень: 1 


З нами з: 18.02.12
Востаннє: 03.12.16
Повідомлень: 1362

2016-08-29 22:56  
хтось може мені пояснити, навіщо батько тієї дівчинки сам пішов на з'їдання мерцями? дивився сьогодні серію на amc, і либонь пропустив пояснення
krigg070 
Відео Гуртом - фільмокрай
Відео Гуртом - фільмокрай


З нами з: 29.10.14
Востаннє: 03.12.16
Повідомлень: 346

2016-09-05 11:42  
+10
UPD: +11

krigg070 
Відео Гуртом - фільмокрай
Відео Гуртом - фільмокрай


З нами з: 29.10.14
Востаннє: 03.12.16
Повідомлень: 346

2016-09-19 19:10  
UPD. (19.09.2016): + 12
krigg070 
Відео Гуртом - фільмокрай
Відео Гуртом - фільмокрай


З нами з: 29.10.14
Востаннє: 03.12.16
Повідомлень: 346

2016-10-03 13:29  
+ 13-15. Повний сезон!
Ваш часовий пояс: GMT + 2 Години

Нова тема   Відповісти