Завантажити та скачати торренти українською


Сусіди 2 / Neighbors 2: Sorority Rising (2016) 1080p Ukr/Eng

Нові коментарі

Нова тема   Відповісти
Автор Повідомлення
corega 
Новенький


З нами з: 15.10.08
Востаннє: 29.11.16
Повідомлень: 14

2016-08-22 19:27  
Сусіди 2 / Neighbors 2: Sorority Rising (2016) 1080p Ukr/Eng



Жанр: комедія, молодіжний
Країна: США



Кінокомпанія: Universal Pictures
Режисер: Ніколас Столер / Nicholas Stoller
Актори: Хлоя Ґрейс Морец, Зак Ефрон, Селена Ґомез, Роуз Бірн, Сет Роґен, Дейв Франко, Ліза Кудроу, Кірсі Клемонс, Еббі Джейкобсон

Сюжет:
Продовження комедії про сусідів від продюсерів "Це кінець", "Супер-перці" і "Життя прекрасне". Подружня пара Раднерів нарешті готова зробити серйозний крок і переїхати до передмістя, враховуючи, що Келлі чекає на другу дитину. Але де там! Поки Мак і Келлі намагаються продати своє житло, щоб реалізувати план, до них по сусідству в'їжджає університетське жіноче товариство. Здавалося б, дівчата набагато менше люблять влаштовувати гучні вечірки і безлад. Але це не так. Нові сусіди не дають Раднерам спокою. Маку і Келлі доводиться йти на відчайдушний крок - вони просять свого колишнього ворога, Тедді Сандерса, допомогти їм.

Українські трейлери



Рейтинг MPAA: R - особам до 17 років обов'язкова присутність батьків або дорослого опікуна
Вікова категорія: 18+

Тривалість: 01:32:24
Якість: 1080p
Відео:
кодек:
розмір кадру: 1920 х 800
бітрейт: 8651 Кбіт/с

Аудіо # 1:
мова: українська
озвучення: професійний дубльований | LeDoyen Studio
переклад: Олекса Негребецький
кодек: 2.0
бітрейт: 192 Кбіт/с
Інформація про дубляж
Переклад: Олекса Негребецький
Режисер дубляжу: Олекса Негребецький
Звукорежисер: Микита Будаш
Звукорежисер перезапису: Олег Кульчицький
Координатор дубляжу: Ірина Кодьман
Ролі дублювали: Роман Чорний, Катерина Брайковська, Володимир Остапчук, Юлія Шаповал, Ганна Соболєва, Антоніна Хижняк, Володимир Паляниця, Андрій Федінчик та інші

Фільм дубльовано та зміксовано студією LeDoyen на замовлення B&H Film Distribution
Аудіо # 2:
мова: англійська
переклад: оригінал
кодек: 5.1
бітрейт: 1509 Кбіт/с

Збережено оригінальні розділи.
MediaInfo
Цитата:
General
Unique ID : 179935848772452518897168555437796883681 (0x875E6248B5A63A368E18FB0AF3FBFCE1)
Complete name : K:\Neighbors 2. Sorority Rising (2016) [Ukr,Eng] 1080p [Hurtom].mkv
Format : Matroska
Format version : Version 4 / Version 2
File size : 6.68 GiB
Duration : 1h 32mn
Overall bit rate : 10.3 Mbps
Encoded date : UTC 2016-08-22 16:29:27
Writing application : mkvmerge v8.3.0 ('Over the Horizon') 32bit
Writing library : libebml v1.3.1 + libmatroska v1.4.2
DURATION : 01:32:42.656000000
NUMBER_OF_FRAMES : 173833
NUMBER_OF_BYTES : 133503744
_STATISTICS_WRITING_APP : mkvmerge v8.3.0 ('Over the Horizon') 32bit
_STATISTICS_WRITING_DATE_UTC : 2016-08-22 16:29:27
_STATISTICS_TAGS : BPS DURATION NUMBER_OF_FRAMES NUMBER_OF_BYTES
Attachment : Yes

Video
ID : 1
Format : AVC
Format/Info : Advanced Video Codec
Format profile : [email protected]
Format settings, CABAC : Yes
Format settings, ReFrames : 5 frames
Codec ID : V_MPEG4/ISO/AVC
Duration : 1h 32mn
Bit rate : 8 651 Kbps
Width : 1 920 pixels
Height : 800 pixels
Display aspect ratio : 2.40:1
Frame rate mode : Constant
Frame rate : 23.976 fps
Color space : YUV
Chroma subsampling : 4:2:0
Bit depth : 8 bits
Scan type : Progressive
Bits/(Pixel*Frame) : 0.235
Stream size : 5.45 GiB (82%)
Writing library : core 148 r2692 64f4e24
Encoding settings : cabac=1 / ref=5 / deblock=1:0:0 / analyse=0x3:0x133 / me=umh / subme=7 / psy=1 / psy_rd=1.00:0.00 / mixed_ref=1 / me_range=16 / chroma_me=1 / trellis=1 / 8x8dct=1 / cqm=0 / deadzone=21,11 / fast_pskip=0 / chroma_qp_offset=-2 / threads=25 / lookahead_threads=4 / sliced_threads=0 / nr=0 / decimate=1 / interlaced=0 / bluray_compat=0 / constrained_intra=0 / bframes=3 / b_pyramid=2 / b_adapt=1 / b_bias=0 / direct=1 / weightb=1 / open_gop=0 / weightp=2 / keyint=250 / keyint_min=23 / scenecut=40 / intra_refresh=0 / rc_lookahead=40 / rc=2pass / mbtree=1 / bitrate=8651 / ratetol=1.0 / qcomp=0.60 / qpmin=0 / qpmax=69 / qpstep=4 / cplxblur=20.0 / qblur=0.5 / ip_ratio=1.40 / aq=1:1.00
Language : English
Default : Yes
Forced : No
DURATION : 01:32:23.797000000
NUMBER_OF_FRAMES : 132918
NUMBER_OF_BYTES : 5994606402
_STATISTICS_WRITING_APP : mkvmerge v8.3.0 ('Over the Horizon') 32bit
_STATISTICS_WRITING_DATE_UTC : 2016-08-22 16:29:27
_STATISTICS_TAGS : BPS DURATION NUMBER_OF_FRAMES NUMBER_OF_BYTES

Audio #1
ID : 2
Format : AC-3
Format/Info : Audio Coding 3
Mode extension : CM (complete main)
Format settings, Endianness : Big
Codec ID : A_AC3
Duration : 1h 32mn
Bit rate mode : Constant
Bit rate : 192 Kbps
Channel(s) : 2 channels
Channel positions : Front: L R
Sampling rate : 48.0 KHz
Bit depth : 16 bits
Compression mode : Lossy
Stream size : 127 MiB (2%)
Title : Дубляж [ 2.0 192 кб/с]
Language : Ukrainian
Default : Yes
Forced : No

Audio #2
ID : 3
Format :
Format/Info : Digital Theater Systems
Mode : 16
Format settings, Endianness : Big
Codec ID : A_DTS
Duration : 1h 32mn
Bit rate mode : Constant
Bit rate : 1 509 Kbps
Channel(s) : 6 channels
Channel positions : Front: L C R, Side: L R, LFE
Sampling rate : 48.0 KHz
Bit depth : 24 bits
Compression mode : Lossy
Stream size : 1 001 MiB (15%)
Title : Original
Language : English
Default : No
Forced : No

Menu
00:00:00.000 : en:00:00:00.000
00:06:30.890 : en:00:06:30.890
00:09:50.381 : en:00:09:50.381
00:13:05.535 : en:00:13:05.535
00:17:37.890 : en:00:17:37.890
00:22:13.082 : en:00:22:13.082
00:27:34.278 : en:00:27:34.278
00:31:54.454 : en:00:31:54.454
00:38:36.022 : en:00:38:36.022
00:44:43.222 : en:00:44:43.222
00:50:42.039 : en:00:50:42.039
00:54:32.811 : en:00:54:32.811
01:00:54.609 : en:01:00:54.609
01:04:14.684 : en:01:04:14.684
01:08:26.644 : en:01:08:26.644
01:12:54.370 : en:01:12:54.370
01:16:34.423 : en:01:16:34.423
01:20:45.215 : en:01:20:45.215
01:23:18.994 : en:01:23:18.994
01:26:03.700 : en:01:26:03.700


 Трекер:    Зареєстрований   

Завантажити / скачати фільм українською



відео для новачків



 Зареєстрований:   2016-08-22 19:27
 Розмір:   6.68 GB 
 Оцінка фільму:   6.6/10 (Голосів: 14)
   
Інші релізи
   Сусіди 2 / Neighbors 2: Sorority Rising (2016) 720p Ukr/Eng | Sub Eng 11FrYkT  3 / 0   5.25 GB   2016-08-24 18:19 
   Сусіди 2 / Neighbors 2: Sorority Rising (2016) Covenant  14 / 0   1.45 GB   2016-08-24 17:29 
hur 
Новенький


З нами з: 29.11.10
Востаннє: 10.12.16
Повідомлень: 20

2016-08-29 19:28  
Давно настільки дурнуватого фільму не було. Закрив плеєр на 6й хвилині.
Ваш часовий пояс: GMT + 2 Години

Нова тема   Відповісти