Завантажити та скачати торренти українською


Книга джунглів / The Jungle Book (2016) 1080p 3D [HalfOverUnder] Ukr/Eng | Sub Eng

Нові коментарі

Нова тема   Відповісти
Автор Повідомлення
-VipeR- 
VIP


З нами з: 17.07.08
Востаннє: 05.12.16
Повідомлень: 275

2016-08-22 11:04  
Книга джунглів / The Jungle Book (2016) 1080p 3D [HalfOverUnder] Ukr/Eng | Sub Eng

Книга джунглів / The Jungle Book (2016) 1080p 3D [HalfOverUnder] Ukr/Eng | Sub Eng
Альтернативні постери

повнорозмірні зображення відкриються по кліку (з натиснутим CTRL чи кліком середньою кнопкою мишки - у новій вкладці)


Жанр: пригодницький, драма, сімейний
Країна: Велика Британія, США



Кінокомпанія: Fairview Entertainment, Moving Picture Company (MPC), Walt Disney Pictures
Режисер: Джон Фавро
Актори: Ніл Сеті, Білл Мюрей, Бен Кінґслі, Ідріс Ельба, Люпіта Ніонґо, Скарлетт Йоганссен, Джанкарло Еспозіто, Крістофер Вокен, Гаррі Шендлінґ, Брайтон Роуз, ЕмДжей Ентоні, Макс Фавро, Джон Фавро, Сем Реймі

Сюжет:
Ця дивовижна історія розповідає про маленького хлопчика, якого виростили у глухому лісі. Він виховувався у вовчій зграї і осягав закони джунглів під наглядом мудрої пантери Баґіри. Однак, наростаюча загроза з боку тигра Шерхана змушує його покинути рідний будинок і відправитися в найближче село до людей. Йому належить пройти довгий шлях до пізнання свого минулого, сповненого небезпечними пригодами і захоплюючими зустрічами з ведмедем Балу, пітоном Каа, королем мавп Луї і іншими лісовими мешканцями.


Тривалість: 01:45:54
Якість: 1080p 3D [HalfOverUnder] by ash61
Відео:
кодек:
розмір кадру: 1920 х 1080
бітрейт: 19,1 Мбіт/с

Аудіо # 1:
мова: українська
переклад: професійний дубльований
кодек: 5.1
бітрейт: 1536 кб/с

Аудіо # 2:
мова: англійська
переклад: оригінал
кодек: 5.1
бітрейт: 640 кб/с

Субтитри:
мова: англійська (повні, SDH)
тип: програмні (м'які)
формат: *.srt
MediaInfo
Код:
General
Unique ID                      : 247105963765122566286329908731139610550 (0xB9E6E0A42E24586093430966315857B6)
Complete name                  : D:\3D\Художні\The Jungle Book (2016) 1080p 3D [HalfOverUnder] [UKR_ENG] [Hurtom].mkv
Format                         : Matroska
Format version                 : Version 4 / Version 2
File size                      : 15.7 GiB
Duration                       : 1h 45mn
Overall bit rate               : 21.2 Mbps
Movie name                     : Книга Джунглів / The Jungle Book (2016) в 3Д
Encoded date                   : UTC 2016-08-22 08:27:02
Writing application            : mkvmerge v8.8.0 ('Wind at my back') 64bit
Writing library                : libebml v1.3.3 + libmatroska v1.4.4
Cover                          : Yes
Attachments                    : cover

Video
ID                             : 1
Format                         : AVC
Format/Info                    : Advanced Video Codec
Format profile                 : [email protected]
Format settings, CABAC         : Yes
Format settings, ReFrames      : 4 frames
Codec ID                       : V_MPEG4/ISO/AVC
Duration                       : 1h 45mn
Bit rate                       : 19.1 Mbps
Width                          : 1 920 pixels
Height                         : 1 080 pixels
Display aspect ratio           : 16:9
Frame rate mode                : Constant
Frame rate                     : 23.976 (24000/1001) fps
Color space                    : YUV
Chroma subsampling             : 4:2:0
Bit depth                      : 8 bits
Scan type                      : Progressive
Bits/(Pixel*Frame)             : 0.384
Stream size                    : 14.1 GiB (90%)
Title                          : by Ash61
Writing library                : core 146 r2538 121396c
Encoding settings              : cabac=1 / ref=4 / deblock=1:-3:-3 / analyse=0x3:0x113 / me=umh / subme=10 / psy=1 / psy_rd=1.00:0.00 / mixed_ref=1 / me_range=32 / chroma_me=1 / trellis=2 / 8x8dct=1 / cqm=0 / deadzone=21,11 / fast_pskip=1 / chroma_qp_offset=-2 / threads=12 / lookahead_threads=3 / sliced_threads=0 / nr=0 / decimate=1 / interlaced=0 / bluray_compat=0 / constrained_intra=0 / bframes=14 / b_pyramid=2 / b_adapt=2 / b_bias=0 / direct=3 / weightb=1 / open_gop=0 / weightp=2 / keyint=250 / keyint_min=23 / scenecut=40 / intra_refresh=0 / rc_lookahead=60 / rc=crf / mbtree=1 / crf=16.0 / qcomp=0.70 / qpmin=0 / qpmax=69 / qpstep=4 / vbv_maxrate=40000 / vbv_bufsize=30000 / crf_max=0.0 / nal_hrd=none / filler=0 / frame-packing=4 / ip_ratio=1.40 / aq=1:0.70
Language                       : English
Default                        : Yes
Forced                         : No

Audio #1
ID                             : 2
Format                         :
Format/Info                    : Digital Theater Systems
Mode                           : 16
Format settings, Endianness    : Big
Codec ID                       : A_DTS
Duration                       : 1h 45mn
Bit rate mode                  : Constant
Bit rate                       : 1 509 Kbps
Channel(s)                     : 6 channels
Channel positions              : Front: L C R, Side: L R, LFE
Sampling rate                  : 48.0 KHz
Frame rate                     : 93.750 fps (512 spf)
Bit depth                      : 24 bits
Compression mode               : Lossy
Stream size                    : 1.12 GiB (7%)
Title                          : 5 .1 @ 1536 kbps
Language                       : Ukrainian
Default                        : Yes
Forced                         : Yes

Audio #2
ID                             : 3
Format                         : AC-3
Format/Info                    : Audio Coding 3
Mode extension                 : CM (complete main)
Format settings, Endianness    : Big
Codec ID                       : A_AC3
Duration                       : 1h 45mn
Bit rate mode                  : Constant
Bit rate                       : 640 Kbps
Channel(s)                     : 6 channels
Channel positions              : Front: L C R, Side: L R, LFE
Sampling rate                  : 48.0 KHz
Frame rate                     : 31.250 fps (1536 spf)
Compression mode               : Lossy
Stream size                    : 485 MiB (3%)
Title                          : Original
Language                       : English
Default                        : No
Forced                         : No

Text #1
ID                             : 4
Format                         : UTF-8
Codec ID                       : S_TEXT/UTF8
Codec ID/Info                  : UTF-8 Plain Text
Duration                       : 1h 44mn
Bit rate                       : 44 bps
Count of elements              : 1218
Stream size                    : 34.1 KiB (0%)
Title                          : Full
Language                       : English
Default                        : No
Forced                         : No

Text #2
ID                             : 5
Format                         : UTF-8
Codec ID                       : S_TEXT/UTF8
Codec ID/Info                  : UTF-8 Plain Text
Duration                       : 1h 44mn
Bit rate                       : 50 bps
Count of elements              : 1410
Stream size                    : 38.4 KiB (0%)
Title                          : SDH
Language                       : English
Default                        : No
Forced                         : No

Menu:
00:00:00.000                   : en:00:00:00.000
00:00:48.215                   : en:00:00:48.215
00:05:15.315                   : en:00:05:15.315
00:09:02.459                   : en:00:09:02.459
00:12:42.178                   : en:00:12:42.178
00:16:34.452                   : en:00:16:34.452
00:21:20.029                   : en:00:21:20.029
00:27:15.133                   : en:00:27:15.133
00:35:04.144                   : en:00:35:04.144
00:43:21.724                   : en:00:43:21.724
00:48:05.132                   : en:00:48:05.132
00:53:29.248                   : en:00:53:29.248
00:58:03.271                   : en:00:58:03.271
01:05:46.442                   : en:01:05:46.442
01:10:35.523                   : en:01:10:35.523
01:17:01.325                   : en:01:17:01.325
01:20:48.927                   : en:01:20:48.927
01:24:46.540                   : en:01:24:46.540
01:30:32.969                   : en:01:30:32.969
01:35:53.206                   : en:01:35:53.206
Скріншоти
Джерело: &

Відео для перегляду на 3D обладнанні!


 Трекер:    Зареєстрований   

Завантажити / скачати фільм українською



відео для новачків



 Зареєстрований:   2016-08-22 11:04
 Розмір:   15.71 GB 
 Оцінка фільму:   9.2/10 (Голосів: 5)
   
Інші релізи
   Книга джунглів / The Jungle Book (2016) 1080p 60fps Ukr/Eng | Sub Eng SilentBoss  7 / 0   26.02 GB   2016-09-02 22:38 
   Книга джунглів / The Jungle Book (2016) AVC AngryBirdsUA  82 / 0   1.45 GB   2016-08-11 07:58 
   Книга джунглів / The Jungle Book (2016) Remux 1080p Ukr/Eng | Sub Eng sandman  10 / 0   29.28 GB   2016-08-11 07:56 
   Книга джунглів / The Jungle Book (2016) Gelios  250 / 2   1.45 GB   2016-08-11 05:28 
   Книга джунглів / The Jungle Book (2016) 1080p Ukr/Eng | Sub Eng 11FrYkT  60 / 1   11.85 GB   2016-08-11 05:13 
   Книга джунглів / The Jungle Book (2016) 720p Ukr/Eng | Sub Eng 11FrYkT  79 / 0   5.25 GB   2016-08-11 05:11 
daemond 
Новенький


З нами з: 22.11.12
Востаннє: 03.12.16
Повідомлень: 2

2016-08-23 11:59  
треба!
igor911 
Відео Гуртом
Відео Гуртом


З нами з: 18.01.08
Востаннє: 05.12.16
Повідомлень: 5144

2016-08-23 17:47  
daemond, має бути тут http://dorizhky.hurtom.com/
daemond 
Новенький


З нами з: 22.11.12
Востаннє: 03.12.16
Повідомлень: 2

2016-08-25 19:49  
а далі що?
igor911 
Відео Гуртом
Відео Гуртом


З нами з: 18.01.08
Востаннє: 05.12.16
Повідомлень: 5144

2016-08-25 19:56  
daemond, прикрути завантажену АС3 доріжку за допомогою MKVToolNix http://toloka.to/t17914
Ваш часовий пояс: GMT + 2 Години

Нова тема   Відповісти