Завантажити та скачати торренти українською


Ф6: ТВІСТЕР / Christmas Twister (F6: TWISTER) (2012) 720p Ukr/Eng | Sub Eng

Нові коментарі

Нова тема   Відповісти
Автор Повідомлення
krigg070 
Відео Гуртом - фільмокрай
Відео Гуртом - фільмокрай


З нами з: 29.10.14
Востаннє: 04.12.16
Повідомлень: 346

2016-08-21 22:32  
Ф6: ТВІСТЕР / Christmas Twister (F6: TWISTER) (2012) 720p Ukr/Eng | Sub Eng

Ф6: ТВІСТЕР / Christmas Twister (F6: TWISTER) (2012) 720p Ukr/Eng | Sub Eng


Жанр: драма, катастрофа, екшн
Країна: США



Кінокомпанія: Production Media Group
Режисер: Пітер Саліван
Актори: Каспер Ван Дієн, Річард Берджи, Вікторія Претт, Гейлі Лу Річардсон, Дмитро Шуйлер-Лінч, Стівен Вільямс, Крістіна ДеРоса та інші

Сюжет:
У невеликому техаському містечку під час курортного сезону, Ітан Уокер, метеоролог і за сумісництвом професор, який працює в місцевому університеті вивчення торнадо, розбуджений уночі повідомленням про торнадо. Його дружина Едісон, репортер, також викликана на роботу, щоб зробити сюжет про торнадо в ранкових новинах. Ітан розуміє, що склалися умови для могутнішого торнадо. Хоча в нього із дружиною проблеми в шлюбі, він просить її зробити попередження але метеоролог станції вважає, що це було одиничним випадком. Едисон намагається змусити його змінити свою думку, але той не хоче - тому що це Різдво, і він не хоче зіпсувати свято, неперевіреними новинами.

Тривалість: 01:26:00
Якість:
Відео:
кодек:
розмір кадру: 1 278 х 716
бітрейт: 3 463 кб/с

Аудіо # 1:
мова: українська
переклад: багатоголосий закадровий
кодек: 2.0 (стерео)
бітрейт: 192 кб/с

Аудіо # 2:
мова: англійська
переклад: оригінал
кодек: 2.0
бітрейт: 192 кб/с

Субтитри (Full, SDH):
мова: англійська
тип: програмні (м'які)
формат: *.srt
Скріншоти
MediaInfo
Код:
General
Unique ID                      : 236405443282744008408595204105993214318 (0xB1DA083FCB923B04B157671F0EF4596E)
Complete name                  : D:\Films\Christmas.Twister.2012.720p..ukr_eng.sub_eng.mkv
Format                         : Matroska
Format version                 : Version 2
File size                      : 2.36 GiB
Duration                       : 1h 26mn
Overall bit rate               : 3 921 Kbps
Encoded date                   : UTC 2016-08-21 19:55:32
Writing application            : mkvmerge v3.3.0 ('Language') built on Mar 24 2010 14:59:24
Writing library                : libebml v0.8.0 + libmatroska v0.9.0

Video
ID                             : 1
Format                         : AVC
Format/Info                    : Advanced Video Codec
Format profile                 : [email protected]
Format settings, CABAC         : Yes
Format settings, ReFrames      : 5 frames
Codec ID                       : V_MPEG4/ISO/AVC
Duration                       : 1h 26mn
Bit rate                       : 3 459 Kbps
Width                          : 1 278 pixels
Height                         : 716 pixels
Display aspect ratio           : 16:9
Frame rate mode                : Constant
Frame rate                     : 23.976 (24000/1001) fps
Color space                    : YUV
Chroma subsampling             : 4:2:0
Bit depth                      : 8 bits
Scan type                      : Progressive
Bits/(Pixel*Frame)             : 0.158
Stream size                    : 2.08 GiB (88%)
Writing library                : core 148 r2638 7599210
Encoding settings              : cabac=1 / ref=5 / deblock=1:0:0 / analyse=0x3:0x113 / me=umh / subme=8 / psy=1 / psy_rd=1.00:0.00 / mixed_ref=1 / me_range=16 / chroma_me=1 / trellis=1 / 8x8dct=1 / cqm=0 / deadzone=21,11 / fast_pskip=1 / chroma_qp_offset=-2 / threads=12 / lookahead_threads=2 / sliced_threads=0 / nr=0 / decimate=1 / interlaced=0 / bluray_compat=0 / constrained_intra=0 / bframes=3 / b_pyramid=2 / b_adapt=2 / b_bias=0 / direct=3 / weightb=1 / open_gop=0 / weightp=2 / keyint=240 / keyint_min=24 / scenecut=40 / intra_refresh=0 / rc_lookahead=50 / rc=crf / mbtree=1 / crf=18.0 / qcomp=0.60 / qpmin=0 / qpmax=69 / qpstep=4 / ip_ratio=1.40 / aq=1:1.00
Language                       : English
Default                        : No
Forced                         : No

Audio #1
ID                             : 2
Format                         : AC-3
Format/Info                    : Audio Coding 3
Mode extension                 : CM (complete main)
Format settings, Endianness    : Big
Codec ID                       : A_AC3
Duration                       : 1h 26mn
Bit rate mode                  : Constant
Bit rate                       : 192 Kbps
Channel(s)                     : 2 channels
Channel positions              : Front: L R
Sampling rate                  : 48.0 KHz
Frame rate                     : 31.250 fps (1536 spf)
Compression mode               : Lossy
Stream size                    : 118 MiB (5%)
Title                          : 2.0 @ 192 kbps - НТН
Language                       : Ukrainian
Default                        : Yes
Forced                         : No

Audio #2
ID                             : 3
Format                         : AC-3
Format/Info                    : Audio Coding 3
Mode extension                 : CM (complete main)
Format settings, Endianness    : Big
Codec ID                       : A_AC3
Duration                       : 1h 26mn
Bit rate mode                  : Constant
Bit rate                       : 192 Kbps
Channel(s)                     : 2 channels
Channel positions              : Front: L R
Sampling rate                  : 48.0 KHz
Frame rate                     : 31.250 fps (1536 spf)
Compression mode               : Lossy
Stream size                    : 118 MiB (5%)
Title                          : 2.0 @ 192 kbps - Original
Language                       : English
Default                        : No
Forced                         : No

Text
ID                             : 4
Format                         : UTF-8
Codec ID                       : S_TEXT/UTF8
Codec ID/Info                  : UTF-8 Plain Text
Title                          : Full, SDH
Language                       : English
Default                        : No
Forced                         : No
Джерело:


 Трекер:    Зареєстрований   

Завантажити / скачати фільм українською



відео для новачків



 Зареєстрований:   2016-08-21 22:32
 Розмір:   2.36 GB 
 Оцінка фільму:   4.5/10 (Голосів: 2)
   
megabucks 
Новенький


З нами з: 14.02.12
Востаннє: 27.11.16
Повідомлень: 9

2016-09-18 14:55  
Панове, станьте на роздачу, будь ласка!
Лише один сідер і то від нього нічого не отримую....
Sad (1)

Ваш часовий пояс: GMT + 2 Години

Нова тема   Відповісти