Завантажити та скачати торренти українською


Едді "Орел" / Eddie the Eagle (2016) 720p Ukr/Eng | Sub Ukr/Eng

Нові коментарі

Нова тема   Відповісти
Автор Повідомлення
Anonymous 







2016-08-21 18:09  
Едді "Орел" / Eddie the Eagle (2016) 720p Ukr/Eng | Sub Ukr/Eng

Едді "Орел" / Eddie the Eagle (2016) 720p Ukr/Eng | Sub Ukr/Eng


Жанр: біографічний, комедія, драма
Країна: Велика Британія, США, Німеччина



Кінокомпанія: Marv Films, Saville Productions, Studio Babelsberg
Режисер: Декстер Флетчер / Dexter Fletcher
Актори: Терон Еджертон / Taron Egerton, Г’ю Джекмен / Hugh Jackman, Крістофер Вокен / Christopher Walken, Джо Гартлі / Jo Hartley, Том Костелло / Tom Costello, Кіт Аллен / Keith Allen, Дікон Толсон / Dickon Tolson, Джек Костелло / Jack Costello та інші
Сюжет:
Фільм розповідає про трамплініста Едді, на прізвисько «Орел». Він прославився завдяки своїм невдачам, бо на всіх змаганнях він займав останні місця...


Рейтинг MPAA: PG-13 - дітям до 13 років перегляд не бажаний
Вікова категорія: 12+

Тривалість: 01:45:43
Якість: 720p [DON]
Відео:
кодек:
розмір кадру: 1280 x 536
бітрейт: 5147 Кбіт/с [crf=15]

Аудіо # 1:
мова: українська
переклад: професійний дубльований | Postmodern
кодек: 5.1
бітрейт: 448 Кбіт/с
Інформація про дубляж
Переклад: Олег Колесніков
Режисер дубляжу: Людмила Петриченко
Менеджер проекту: Ірина Туловська
Звукорежисери: Антон Семикопенко і Геннадій Алексєєв
Ролі дублювали: Едді Едвардс – Андрій Федінчик, Едді малий – Костянтин Чернокрилюк, Бронсон Пірі – Андрій Твердак, Дастін Тарґет – Михайло Войчук, Дженет Едвардс – Інна Капінос, Террі Едвардс – Євген Пашин, Петра – Наталя Задніпровська-Плахотнюк, Ворен Шарп – Юрій Висоцький, Нюканен – Павло Скороходько, Бйорн – Михайло Кришталь, Зак – Дмитро Терещукк, Ведучий США / Кравець / Лікар – Володимир Терещук, Річмонд – Юрій Гребельник, Ерік – Дмитро Сова, Диктор – Андрій Мостренко, Керрі – Олена Узлюк, Коментатор – Владислав Пупков; а також: Аліса Балан, Катерина Башкіна-Зленко, Оксана Поліщук, Дмитро Тварковський, В'ячеслав Дудко, Андрій Соболєв, Сергій Солопай та інші.
Фільм дубльовано компанією Postmodern, зміксовано студією Deluxe Media.

Аудіо # 2:
мова: англійська
переклад: оригінал
кодек: 5.1
бітрейт: 1509 Кбіт/с

Субтитри # 1-2:
мова: українська (форсовані, повні)
тип: програмні (м'які)
формат: *.srt

Субтитри # 3-4:
мова: англійська (форсовані, повні)
тип: програмні (м'які)
формат: *.srt

Збережено оригінальні розділи, як на Blu-ray
MediaInfo
Код:
Complete name               : Eddie the Eagle (2016) [Ukr,Eng sub.Ukr,Eng] 720p [Hurtom].mkv
Format                      : Matroska
Format version              : Version 4 / Version 2
File size                   : 5.25 GiB
Duration                    : 1 h 45 min
Overall bit rate            : 7 108 kb/s
Movie name                  : Едді "Орел" / Eddie the Eagle (2016) [Ukr,Eng sub.Ukr,Eng] 720p [Hurtom]
Writing library             : libebml v1.3.4 + libmatroska v1.4.5
Cover                       : Yes
Attachments                 : cover.jpg / verona-serial-medium-regular.ttf

Video
ID                          : 1
Format                      : AVC
Format/Info                 : Advanced Video Codec
Format profile              : [email protected]
Format settings, CABAC      : Yes
Format settings, ReFrames   : 12 frames
Codec ID                    : V_MPEG4/ISO/AVC
Duration                    : 1 h 45 min
Bit rate                    : 5 147 kb/s
Width                       : 1 280 pixels
Height                      : 536 pixels
Display aspect ratio        : 2.40:1
Frame rate mode             : Constant
Frame rate                  : 23.976 (24000/1001) FPS
Color space                 : YUV
Chroma subsampling          : 4:2:0
Bit depth                   : 8 bits
Scan type                   : Progressive
Bits/(Pixel*Frame)          : 0.313
Stream size                 : 3.80 GiB (72%)
Title                       : Едді "Орел" / Eddie the Eagle (2016) 720p [DON]
Writing library             : core 148 r2692kMod 64f4e24
Encoding settings           : cabac=1 / ref=12 / deblock=1:-3:-3 / analyse=0x3:0x113 / me=umh / subme=11 / psy=1 / fade_compensate=0.00 / psy_rd=1.00:0.05 / mixed_ref=1 / me_range=32 / chroma_me=1 / trellis=2 / 8x8dct=1 / cqm=0 / deadzone=21,11 / fast_pskip=0 / chroma_qp_offset=-4 / threads=12 / lookahead_threads=2 / sliced_threads=0 / nr=0 / decimate=1 / interlaced=0 / bluray_compat=0 / constrained_intra=0 / fgo=0 / bframes=9 / b_pyramid=2 / b_adapt=2 / b_bias=0 / direct=3 / weightb=1 / open_gop=0 / weightp=2 / keyint=230 / keyint_min=23 / scenecut=40 / intra_refresh=0 / rc_lookahead=40 / rc=crf / mbtree=0 / crf=15.0000 / qcomp=0.65 / qpmin=0 / qpmax=69 / qpstep=4 / vbv_maxrate=50000 / vbv_bufsize=62500 / crf_max=0.0 / nal_hrd=none / filler=0 / ip_ratio=1.40 / pb_ratio=1.30 / aq=3:0.85
Language                    : English
Default                     : Yes
Forced                      : No

Audio #1
ID                          : 2
Format                      : AC-3
Format/Info                 : Audio Coding 3
Mode extension              : CM (complete main)
Format settings, Endianness : Big
Codec ID                    : A_AC3
Duration                    : 1 h 45 min
Bit rate mode               : Constant
Bit rate                    : 448 kb/s
Channel(s)                  : 6 channels
Channel positions           : Front: L C R, Side: L R, LFE
Sampling rate               : 48.0 kHz
Frame rate                  : 31.250 FPS (1536 spf)
Compression mode            : Lossy
Stream size                 : 339 MiB (6%)
Title                       : Dub [Postmodern, Blu-ray CEE] 5.1 448 kbps
Language                    : Ukrainian
Default                     : Yes
Forced                      : No

Audio #2
ID                          : 3
Format                      :
Format/Info                 : Digital Theater Systems
Mode                        : 16
Format settings, Endianness : Big
Codec ID                    : A_DTS
Duration                    : 1 h 45 min
Bit rate mode               : Constant
Bit rate                    : 1 509 kb/s
Channel(s)                  : 6 channels
Channel positions           : Front: L C R, Side: L R, LFE
Sampling rate               : 48.0 kHz
Frame rate                  : 93.750 FPS (512 spf)
Bit depth                   : 24 bits
Compression mode            : Lossy
Stream size                 : 1.11 GiB (21%)
Title                       : Original, 5.1 1509 kbps
Language                    : English
Default                     : No
Forced                      : No

Text #1
ID                          : 4
Format                      : UTF-8
Codec ID                    : S_TEXT/UTF8
Codec ID/Info               : UTF-8 Plain Text
Duration                    : 7 min
Bit rate                    : 4 b/s
Count of elements           : 4
Stream size                 : 259 Bytes (0%)
Title                       : Ukr Forced
Language                    : Ukrainian
Default                     : Yes
Forced                      : Yes

Text #2
ID                          : 5
Format                      : UTF-8
Codec ID                    : S_TEXT/UTF8
Codec ID/Info               : UTF-8 Plain Text
Duration                    : 1 h 44 min
Bit rate                    : 88 b/s
Count of elements           : 1142
Stream size                 : 67.7 KiB (0%)
Title                       : Ukr Full
Language                    : Ukrainian
Default                     : No
Forced                      : No

Text #3
ID                          : 6
Format                      : UTF-8
Codec ID                    : S_TEXT/UTF8
Codec ID/Info               : UTF-8 Plain Text
Duration                    : 29 min
Bit rate                    : 0 b/s
Count of elements           : 4
Stream size                 : 104 Bytes (0%)
Title                       : Eng Forced
Language                    : English
Default                     : No
Forced                      : No

Text #4
ID                          : 7
Format                      : UTF-8
Codec ID                    : S_TEXT/UTF8
Codec ID/Info               : UTF-8 Plain Text
Duration                    : 1 h 39 min
Bit rate                    : 55 b/s
Count of elements           : 1105
Stream size                 : 40.5 KiB (0%)
Title                       : Eng full
Language                    : English
Default                     : No
Forced                      : No

Menu
00:00:00.000                : en:00:00:00.000
00:03:33.171                : en:00:03:33.171
00:08:15.161                : en:00:08:15.161
00:12:06.684                : en:00:12:06.684
00:17:54.573                : en:00:17:54.573
00:21:31.081                : en:00:21:31.081
00:26:19.578                : en:00:26:19.578
00:31:41.566                : en:00:31:41.566
00:37:13.273                : en:00:37:13.273
00:41:46.963                : en:00:41:46.963
00:47:12.329                : en:00:47:12.329
00:50:19.350                : en:00:50:19.350
00:53:39.591                : en:00:53:39.591
00:56:57.581                : en:00:56:57.581
01:02:22.906                : en:01:02:22.906
01:08:16.884                : en:01:08:16.884
01:11:42.298                : en:01:11:42.298
01:17:05.788                : en:01:17:05.788
01:20:00.587                : en:01:20:00.587
01:23:23.457                : en:01:23:23.457
01:27:44.593                : en:01:27:44.593
01:31:40.120                : en:01:31:40.120
01:36:53.057                : en:01:36:53.057
01:40:42.078                : en:01:40:42.078


Джерело: &

ЗАЛИШАЙТЕСЬ ЯКОМОГА ДОВШЕ НА РОЗДАЧІ!
СКАЧАВ САМ - ДАЙ СКАЧАТИ ІНШИМ


 Трекер:    Зареєстрований   

Завантажити / скачати фільм українською



відео для новачків



 Зареєстрований:   2016-08-21 18:09
 Розмір:   5.25 GB 
 Оцінка фільму:   5.5/10 (Голосів: 20)
   
Інші релізи
   Едді "Орел" / Eddie the Eagle (2016) 1080p Ukr/Eng | Sub Ukr/Eng igor911  6 / 0   10.32 GB   2016-08-21 19:31 
   Едді "Орел" / Eddie the Eagle (2016) Gelios  35 / 1   1.45 GB   2016-08-18 14:32 
   Едді "Орел" / Eddie the Eagle (2016) Ukr/Eng | Sub Ukr/Eng Загора  32 / 0   1.91 GB   2016-06-09 17:13 
Ваш часовий пояс: GMT + 2 Години

Нова тема   Відповісти