Завантажити та скачати торренти українською


Пеле: Народження легенди / Pelé: Birth of a Legend (2016) AVC Ukr/Eng | Sub Eng

Нові коментарі

Нова тема   Відповісти
Автор Повідомлення
Anonymous 







2016-08-21 10:38  
Пеле: Народження легенди / Pelé: Birth of a Legend (2016) AVC Ukr/Eng | Sub Eng

Пеле: Народження легенди / Pelé: Birth of a Legend (2016) AVC Ukr/Eng | Sub Eng


Жанр: драма, біографічний, спорт
Країна: США



Кінокомпанія: Imagine Entertainment, Seine Pictures, Zohar Internationa
Режисер: Джефф Цимбаліст / Jeff Zimbalist, Майкл Цимбаліст / Michael Zimbalist
Актори: Кевін де Паула / Kevin de Paula, Леонардо Ліма Карвальо / Leonardo Lima Carvalho, Сеу Жоржі / Seu Jorge, Маріана Нюнс / Mariana Nunes, Вінсент Д’Онофріо / Vincent D'Onofrio, Андре Маттос / André Mattos, Рафаель Енрікес / Rafael Henriques, Родріго Санторо / Rodrigo Santoro, Дієго Бонета / Diego Boneta, Колм Міні / Colm Meaney, Пеле / Pelé та інші

Сюжет:
У невеликому бразильському містечку в бідній родині зростав хлопчик Едсон. Його батько в минулому був футболістом, тож до захоплення сина цією грою завжди ставився з повагою і навчав усього, що знав і вмів сам. Із семи років хлопчик почав виступати за місцеву дитячу збірну, а в 15-ть його запросили грати за команду "Сантос". Згодом клуб став всесвітньо відомим, і багато в чому завдяки хлопцю, якого світ знає під іменем Пеле.



Рейтинг MPAA: PG - рекомендується присутність батьків
Вікова категорія: 12+

Тривалість: 01:47:06
Якість: AVC
Відео:
кодек:
розмір кадру: 1024 х 426
бітрейт: 2280 Кбіт/с

Аудіо # 1:
мова: українська
переклад: багатоголосий закадровий
кодек: 5.1
бітрейт: 448 Кбіт/с

Аудіо # 2:
мова: англійська
переклад: оригінал
кодек: 5.1
бітрейт: 448 Кбіт/с

Субтитри:
мова: англійська
тип: програмні (м'які)
формат: *.srt

Збережено оригінальні розділи, як на Blu-ray.
MediaInfo
Код:
Complete name               : Pele. Birth of a Legend (2016) [Ukr,Eng sub.Eng] AVC [Hurtom].mkv
Format                      : Matroska
Format version              : Version 4 / Version 2
File size                   : 2.38 GiB
Duration                    : 1 h 47 min
Overall bit rate mode       : Variable
Overall bit rate            : 3 182 kb/s
Movie name                  : Пеле: Народження легенди / Pelé: Birth of a Legend (2016) [Ukr,Eng sub.Eng] AVC [Hurtom]
Writing library             : libebml v1.3.4 + libmatroska v1.4.5
Cover                       : Yes
Attachments                 : cover.jpg

Video
ID                          : 1
Format                      : AVC
Format/Info                 : Advanced Video Codec
Format profile              : [email protected]
Format settings, CABAC      : Yes
Format settings, ReFrames   : 10 frames
Codec ID                    : V_MPEG4/ISO/AVC
Duration                    : 1 h 47 min
Bit rate mode               : Variable
Bit rate                    : 2 280 kb/s
Maximum bit rate            : 40.0 Mb/s
Width                       : 1 024 pixels
Height                      : 426 pixels
Display aspect ratio        : 2.40:1
Frame rate mode             : Constant
Frame rate                  : 23.976 (24000/1001) FPS
Color space                 : YUV
Chroma subsampling          : 4:2:0
Bit depth                   : 8 bits
Scan type                   : Progressive
Bits/(Pixel*Frame)          : 0.218
Stream size                 : 1.71 GiB (72%)
Title                       : Пеле: Народження легенди / Pelé: Birth of a Legend (2016) AVC
Writing library             : core 148 r2638 7599210
Encoding settings           : cabac=1 / ref=10 / deblock=1:-3:-3 / analyse=0x3:0x133 / me=umh / subme=11 / psy=1 / psy_rd=1.00:0.00 / mixed_ref=1 / me_range=48 / chroma_me=1 / trellis=2 / 8x8dct=1 / cqm=1 / deadzone=21,11 / fast_pskip=1 / chroma_qp_offset=-2 / threads=11 / lookahead_threads=2 / sliced_threads=0 / nr=0 / decimate=1 / interlaced=0 / bluray_compat=0 / constrained_intra=0 / bframes=12 / b_pyramid=2 / b_adapt=2 / b_bias=0 / direct=3 / weightb=1 / open_gop=0 / weightp=2 / keyint=240 / keyint_min=23 / scenecut=40 / intra_refresh=0 / rc=2pass / mbtree=0 / bitrate=2280 / ratetol=1.0 / qcomp=0.70 / qpmin=3 / qpmax=69 / qpstep=4 / cplxblur=20.0 / qblur=0.5 / ip_ratio=1.40 / pb_ratio=1.30 / aq=1:1.0
Language                    : English
Default                     : Yes
Forced                      : No
Color range                 : Limited
Color primaries             : BT.709
Transfer characteristics    : BT.709
Matrix coefficients         : BT.709

Audio #1
ID                          : 2
Format                      : AC-3
Format/Info                 : Audio Coding 3
Mode extension              : CM (complete main)
Format settings, Endianness : Big
Codec ID                    : A_AC3
Duration                    : 1 h 47 min
Bit rate mode               : Constant
Bit rate                    : 448 kb/s
Channel(s)                  : 6 channels
Channel positions           : Front: L C R, Side: L R, LFE
Sampling rate               : 48.0 kHz
Frame rate                  : 31.250 FPS (1536 spf)
Compression mode            : Lossy
Stream size                 : 343 MiB (14%)
Title                       : MVO, 5.1 448 kbps [Hurtom]
Language                    : Ukrainian
Default                     : Yes
Forced                      : No

Audio #2
ID                          : 3
Format                      : AC-3
Format/Info                 : Audio Coding 3
Mode extension              : CM (complete main)
Format settings, Endianness : Big
Codec ID                    : A_AC3
Duration                    : 1 h 47 min
Bit rate mode               : Constant
Bit rate                    : 448 kb/s
Channel(s)                  : 6 channels
Channel positions           : Front: L C R, Side: L R, LFE
Sampling rate               : 48.0 kHz
Frame rate                  : 31.250 FPS (1536 spf)
Compression mode            : Lossy
Stream size                 : 343 MiB (14%)
Title                       : Original, 5.1 448 kbps
Language                    : English
Default                     : No
Forced                      : No

Text
ID                          : 4
Format                      : UTF-8
Codec ID                    : S_TEXT/UTF8
Codec ID/Info               : UTF-8 Plain Text
Duration                    : 1 h 40 min
Bit rate                    : 65 b/s
Count of elements           : 1361
Stream size                 : 48.2 KiB (0%)
Title                       : Full
Language                    : English
Default                     : No
Forced                      : No

Menu
00:00:00.000                : en:Chapter 1
00:08:37.808                : en:Chapter 2
00:15:48.155                : en:Chapter 3
00:27:30.982                : en:Chapter 4
00:34:55.093                : en:Chapter 5
00:43:33.569                : en:Chapter 6
00:53:53.772                : en:Chapter 7
01:04:19.730                : en:Chapter 8
01:14:40.309                : en:Chapter 9
01:21:35.056                : en:Chapter 10
01:29:41.000                : en:Chapter 11
01:42:00.072                : en:Chapter 12


Джерело: &


ЗАЛИШАЙТЕСЬ ЯКОМОГА ДОВШЕ НА РОЗДАЧІ!
СКАЧАВ САМ - ДАЙ СКАЧАТИ ІНШИМ


 Трекер:    Зареєстрований   

Завантажити / скачати фільм українською



відео для новачків



 Зареєстрований:   2016-08-21 10:38
 Розмір:   2.38 GB 
 Оцінка фільму:   5.7/10 (Голосів: 27)
   
FRK 
Новенький


З нами з: 10.01.14
Востаннє: 05.12.16
Повідомлень: 23

2016-08-22 08:10  
Гарне кіно, але можна було б краще. 9 з 10.
Smitt011 
Свій


З нами з: 11.02.14
Востаннє: 20.11.16
Повідомлень: 85

2016-09-06 14:41  
Дякую за реліз.
Фільм супер, давно нічого такого не дивився, бере за душу.
Раджу до перегляду.
12 з 10

val63 
Свій


З нами з: 03.01.16
Востаннє: 05.12.16
Повідомлень: 120

2016-09-06 14:59  
А де про футбол, про великого Пеле?
Бразильські соплі, нікуди їх фавели не ділися, так і зараз живуть 3/10

Anonymous 







2016-09-06 15:30  
val63 написано:
А де про футбол

так "Народження легенди" ж.

Maters 
VIP


З нами з: 27.03.12
Востаннє: 05.12.16
Повідомлень: 1159

2016-09-13 22:35  
Занадто художній цей фільм, я б сказав)) Йому трохи більше історичних моментів - було б дуже круто. Також зовсім не сподобався малий, який грав пеле в 10-річному віці: якось натягнуто і неправдоподібно. Але потім він "виріс" і весь потік подій повернув у правильне русло, тому подальший перегляд не викликав ніяких сумнівів і загалом фільм сподобався. Поставлю 8/10 ))
Ваш часовий пояс: GMT + 2 Години

Нова тема   Відповісти