Завантажити та скачати торренти українською


П'ятеро друзів. Дилогія / Fünf Freunde. Dilogy (2012-2013) 1080p Ukr/Ger

Нові коментарі

Нова тема   Відповісти
Останній раз роздавалося mavitya (2016-12-09)
Автор Повідомлення
mavitya 
Новенький


З нами з: 24.08.08
Востаннє: 09.12.16
Повідомлень: 13

2016-08-20 23:53  
П'ятеро друзів. Дилогія / Fünf Freunde. Dilogy (2012-2013) 1080p Ukr/Ger

П'ятеро друзів. Дилогія / Fünf Freunde. Dilogy (2012-2013) 1080p Ukr/Ger


Жанр: дитячий, сімейний, пригодницький
Країна: Німеччина
П'ятеро друзів / Fünf Freunde (2012) 1080p Ukr/Ger

П'ятеро друзів / Fünf Freunde (2012) 1080p Ukr/Ger

Альтернативний постер



Жанр: дитячий, комедія, сімейний


Кінокомпанія: Constantin Film, Sam Film, SamFilm Produktion
Режисер: Майк Марзук
Актори: Квирин Йоттль, Юстус Шлінгензіпен, Валерія Айзенбарт, Нєєль-Марі Нікель, Аня Клинг, Міхаель Фітц, Армін Роде, Йохан фон Бюлов, Анатоль Таубман, Анна Беттхер, Еліас М'Барек, Альвара Хёфельс, Маркус Харріс, Свен Герольд, Хольгер Бопп

Сюжет:
Джордж дуже засмучена. Її батько відправився працювати над своїм винаходом до невеликого відокремленого острівця, і тепер їй доведеться проводити час з двоюрідними братами та сестрою, які приїхали на канікули. Але дивне відкриття у старій печері контрабандистів допоможе героям розтопити лід і стати друзями. Разом з вірним псом Тіммі вони стануть на перешкоді злочинцям, що прагнуть вкрасти винахід батька Джордж.

Екранізація за мотивами популярного циклу повістей Енід Блайтон.


Тривалість: 01:32:20
Якість: 1080p
Відео:
кодек:
розмір кадру: 1920 х 1040
бітрейт: 7 217 кб/с

Аудіо # 1:
мова: українська
переклад: багатоголосий закадровий
кодек: 2.0
бітрейт: 192 кб/с

Аудіо # 2:
мова: німецька
переклад: оригінал
кодек: 5.1
бітрейт: 1 509 кб/с

Збережено оригінальні розділи, як на Blu-ray.
MediaInfo
Код:
General
Unique ID                      : 213139966585429950522978948649836777470 (0xA05943AFAB73CC019D5951482B868FFE)
Complete name                  : G:\Nimecki_na_rozdachu\Fünf Freunde. Dilogy (2012-2013) 1080p [Hurtom]\Fünf Freunde (2012) [Ukr,Ger] 1080p [Hurtom].mkv
Format                         : Matroska
Format version                 : Version 4 / Version 2
File size                      : 5.87 GiB
Duration                       : 1h 32mn
Overall bit rate               : 9 099 Kbps
Encoded date                   : UTC 2016-08-18 02:28:50
Writing application            : mkvmerge v9.2.0 ('Photograph') 64bit
Writing library                : libebml v1.3.3 + libmatroska v1.4.4
DURATION                       : 01:32:19.424000000
NUMBER_OF_FRAMES               : 519321
NUMBER_OF_BYTES                : 1044873852
_STATISTICS_WRITING_APP        : mkvmerge v9.2.0 ('Photograph') 64bit
_STATISTICS_WRITING_DATE_UTC   : 2016-08-18 02:28:50
_STATISTICS_TAGS               : BPS DURATION NUMBER_OF_FRAMES NUMBER_OF_BYTES

Video
ID                             : 2
Format                         : AVC
Format/Info                    : Advanced Video Codec
Format profile                 : [email protected]
Format settings, CABAC         : Yes
Format settings, ReFrames      : 4 frames
Codec ID                       : V_MPEG4/ISO/AVC
Duration                       : 1h 32mn
Bit rate                       : 7 217 Kbps
Width                          : 1 920 pixels
Height                         : 1 040 pixels
Display aspect ratio           : 1.85:1
Frame rate mode                : Constant
Frame rate                     : 24.000 fps
Color space                    : YUV
Chroma subsampling             : 4:2:0
Bit depth                      : 8 bits
Scan type                      : Progressive
Bits/(Pixel*Frame)             : 0.151
Stream size                    : 4.65 GiB (79%)
Writing library                : core 125 r2208 d9d2288
Encoding settings              : cabac=1 / ref=4 / deblock=1:0:0 / analyse=0x3:0x113 / me=umh / subme=7 / psy=1 / psy_rd=1.00:0.00 / mixed_ref=1 / me_range=16 / chroma_me=1 / trellis=1 / 8x8dct=1 / cqm=0 / deadzone=21,11 / fast_pskip=0 / chroma_qp_offset=-2 / threads=6 / lookahead_threads=1 / sliced_threads=0 / nr=0 / decimate=1 / interlaced=0 / bluray_compat=0 / constrained_intra=0 / bframes=3 / b_pyramid=2 / b_adapt=1 / b_bias=0 / direct=1 / weightb=1 / open_gop=0 / weightp=2 / keyint=250 / keyint_min=24 / scenecut=40 / intra_refresh=0 / rc_lookahead=40 / rc=crf / mbtree=1 / crf=20.0 / qcomp=0.60 / qpmin=0 / qpmax=69 / qpstep=4 / ip_ratio=1.40 / aq=1:1.00
Language                       : German
Default                        : Yes
Forced                         : No

Audio #1
ID                             : 1
Format                         : AC-3
Format/Info                    : Audio Coding 3
Mode extension                 : CM (complete main)
Format settings, Endianness    : Big
Codec ID                       : A_AC3
Duration                       : 1h 32mn
Bit rate mode                  : Constant
Bit rate                       : 192 Kbps
Channel(s)                     : 2 channels
Channel positions              : Front: L R
Sampling rate                  : 48.0 KHz
Bit depth                      : 16 bits
Compression mode               : Lossy
Stream size                    : 127 MiB (2%)
Language                       : Ukrainian
Default                        : Yes
Forced                         : Yes
DURATION                       : 01:32:20.417000000
NUMBER_OF_FRAMES               : 132970
NUMBER_OF_BYTES                : 5121618477
_STATISTICS_WRITING_APP        : mkvmerge v9.2.0 ('Photograph') 64bit
_STATISTICS_WRITING_DATE_UTC   : 2016-08-18 02:28:50
_STATISTICS_TAGS               : BPS DURATION NUMBER_OF_FRAMES NUMBER_OF_BYTES

Audio #2
ID                             : 3
Format                         :
Format/Info                    : Digital Theater Systems
Mode                           : 16
Format settings, Endianness    : Big
Codec ID                       : A_DTS
Duration                       : 1h 32mn
Bit rate mode                  : Constant
Bit rate                       : 1 509 Kbps
Channel(s)                     : 6 channels
Channel positions              : Front: L C R, Side: L R, LFE
Sampling rate                  : 48.0 KHz
Bit depth                      : 24 bits
Compression mode               : Lossy
Stream size                    : 997 MiB (17%)
Language                       : German
Default                        : No
Forced                         : No

Menu
00:00:00.000                   : de:00:00:00.000
00:05:50.542                   : de:00:05:50.542
00:11:53.250                   : de:00:11:53.250
00:17:02.292                   : de:00:17:02.292
00:21:47.625                   : de:00:21:47.625
00:26:51.708                   : de:00:26:51.708
00:32:01.875                   : de:00:32:01.875
00:38:04.083                   : de:00:38:04.083
00:43:18.083                   : de:00:43:18.083
00:47:22.375                   : de:00:47:22.375
00:51:47.250                   : de:00:51:47.250
00:54:57.375                   : de:00:54:57.375
00:59:41.708                   : de:00:59:41.708
01:04:24.500                   : de:01:04:24.500
01:09:41.000                   : de:01:09:41.000
01:14:33.167                   : de:01:14:33.167
01:19:07.708                   : de:01:19:07.708
01:24:10.125                   : de:01:24:10.125
01:28:15.625                   : de:01:28:15.625
П'ятеро друзів 2 / Fünf Freunde 2 (2013) 1080p Ukr/Ger

П'ятеро друзів 2 / Fünf Freunde 2 (2013) 1080p Ukr/Ger



Жанр: сімейний, дитячий, пригодницький

Кінокомпанія: Constantin Film, Sam Film, SamFilm Produktion
Режисер: Майк Марзук
Актори: Квирин Ёттль, Юстус Шлінгензіпен, Крісто Феркіч, Валерія Айзенбарт, Нєєль-Марі Нікель, Петер Ломайєр, Олівер Коріттке, Штефан Конарський, Хейо фон Штеттен, Анатоль Таубман, Себастьян Герольд, Роберт Шенкер, Петро Дворжак

Сюжет:
П'ятеро друзів - Джордж, Джуліан, Дік, Анна та вірний пес Тіммі знову разом і знову знаходять небезпечні пригода на свої голови. Під час походу до легендарного Котячого болота вони дізнаються стару легенду про таємничого та шляхетного воїна, який колись давно врятував від злодіїв найбільший у світі смарагд "Зелене око" і сховав його десь у цих краях.

Там же герої знайомляться зі своїм ровесником - хлопчиком на ім'я Харді. Несподівано Діка, сплутавши з Харді, викрадають двоє бандитів. Викрадачі вважають, що Харді повинен знати, де захований коштовний камінь. Друзі, звичайно ж, поспішають на допомогу.


Тривалість: 01:31:53
Якість: 1080p
Відео:
кодек:
розмір кадру: 1920 х 1040
бітрейт: 8 043 кб/с

Аудіо # 1:
мова: українська
переклад: багатоголосий закадровий
кодек: 2.0
бітрейт: 192 кб/с

Аудіо # 2:
мова: німецька
переклад: оригінал
кодек: 5.1
бітрейт: 1 509 кб/с

Збережено оригінальні розділи, як на Blu-ray.
MediaInfo
Код:
General
Unique ID                      : 190209832240949461635283213175105114426 (0x8F1914C718B535599997CA2D4A05D13A)
Complete name                  : G:\Nimecki_na_rozdachu\Fünf Freunde. Dilogy (2012-2013) 1080p [Hurtom]\Fünf Freunde 2 (2013) [Ukr,Ger] 1080p [Hurtom].mkv
Format                         : Matroska
Format version                 : Version 4 / Version 2
File size                      : 6.38 GiB
Duration                       : 1h 31mn
Overall bit rate               : 9 942 Kbps
Encoded date                   : UTC 2016-08-20 12:34:30
Writing application            : mkvmerge v9.2.0 ('Photograph') 64bit
Writing library                : libebml v1.3.3 + libmatroska v1.4.4
DURATION                       : 01:31:53.387000000
NUMBER_OF_FRAMES               : 516880
NUMBER_OF_BYTES                : 1039962560
_STATISTICS_WRITING_APP        : mkvmerge v9.2.0 ('Photograph') 64bit
_STATISTICS_WRITING_DATE_UTC   : 2016-08-20 12:34:30
_STATISTICS_TAGS               : BPS DURATION NUMBER_OF_FRAMES NUMBER_OF_BYTES

Video
ID                             : 2
Format                         : AVC
Format/Info                    : Advanced Video Codec
Format profile                 : [email protected]
Format settings, CABAC         : Yes
Format settings, ReFrames      : 4 frames
Codec ID                       : V_MPEG4/ISO/AVC
Duration                       : 1h 31mn
Bit rate                       : 8 043 Kbps
Width                          : 1 920 pixels
Height                         : 1 040 pixels
Display aspect ratio           : 1.85:1
Frame rate mode                : Constant
Frame rate                     : 24.000 fps
Color space                    : YUV
Chroma subsampling             : 4:2:0
Bit depth                      : 8 bits
Scan type                      : Progressive
Bits/(Pixel*Frame)             : 0.168
Stream size                    : 5.16 GiB (81%)
Writing library                : core 138 r2358 9e941d1
Encoding settings              : cabac=1 / ref=4 / deblock=1:-1:-1 / analyse=0x3:0x133 / me=umh / subme=7 / psy=1 / psy_rd=1.00:0.15 / mixed_ref=1 / me_range=16 / chroma_me=1 / trellis=1 / 8x8dct=1 / cqm=0 / deadzone=21,11 / fast_pskip=0 / chroma_qp_offset=-3 / threads=18 / lookahead_threads=3 / sliced_threads=0 / nr=0 / decimate=1 / interlaced=0 / bluray_compat=0 / constrained_intra=0 / bframes=3 / b_pyramid=2 / b_adapt=1 / b_bias=0 / direct=3 / weightb=1 / open_gop=0 / weightp=2 / keyint=240 / keyint_min=24 / scenecut=40 / intra_refresh=0 / rc_lookahead=40 / rc=crf / mbtree=1 / crf=20.0 / qcomp=0.60 / qpmin=10 / qpmax=69 / qpstep=4 / ip_ratio=1.40 / aq=1:1.00
Language                       : English
Default                        : Yes
Forced                         : No

Audio #1
ID                             : 1
Format                         : AC-3
Format/Info                    : Audio Coding 3
Mode extension                 : CM (complete main)
Format settings, Endianness    : Big
Codec ID                       : A_AC3
Duration                       : 1h 31mn
Bit rate mode                  : Constant
Bit rate                       : 192 Kbps
Channel(s)                     : 2 channels
Channel positions              : Front: L R
Sampling rate                  : 48.0 KHz
Bit depth                      : 16 bits
Compression mode               : Lossy
Stream size                    : 126 MiB (2%)
Language                       : Ukrainian
Default                        : Yes
Forced                         : Yes
DURATION                       : 01:31:53.417000000
NUMBER_OF_FRAMES               : 132322
NUMBER_OF_BYTES                : 5677462321
_STATISTICS_WRITING_APP        : mkvmerge v9.2.0 ('Photograph') 64bit
_STATISTICS_WRITING_DATE_UTC   : 2016-08-20 12:34:30
_STATISTICS_TAGS               : BPS DURATION NUMBER_OF_FRAMES NUMBER_OF_BYTES

Audio #2
ID                             : 3
Format                         :
Format/Info                    : Digital Theater Systems
Mode                           : 16
Format settings, Endianness    : Big
Codec ID                       : A_DTS
Duration                       : 1h 31mn
Bit rate mode                  : Constant
Bit rate                       : 1 509 Kbps
Channel(s)                     : 6 channels
Channel positions              : Front: L C R, Side: L R, LFE
Sampling rate                  : 48.0 KHz
Bit depth                      : 24 bits
Compression mode               : Lossy
Stream size                    : 992 MiB (15%)
Language                       : German
Default                        : No
Forced                         : No

Menu
00:00:00.000                   : en:00:00:00.000
00:06:16.041                   : en:00:06:16.041
00:12:09.750                   : en:00:12:09.750
00:17:39.541                   : en:00:17:39.541
00:23:07.833                   : en:00:23:07.833
00:27:37.666                   : en:00:27:37.666
00:33:27.958                   : en:00:33:27.958
00:40:15.166                   : en:00:40:15.166
00:46:09.541                   : en:00:46:09.541
00:51:52.291                   : en:00:51:52.291
00:57:20.708                   : en:00:57:20.708
01:02:24.583                   : en:01:02:24.583
01:07:19.375                   : en:01:07:19.375
01:12:25.625                   : en:01:12:25.625
01:19:03.500                   : en:01:19:03.500
01:25:15.416                   : en:01:25:15.416
01:27:39.250                   : en:01:27:39.250
01:31:53.416                   : en:01:31:53.416
Джерело: &
Подяка пану slavik_v_z за запис з ТБ
Особиста оцінка: 10 - без зайвих вагань рекомендую всім!


Бронзовий реліз (на рейтинг впливає 75% завантаженого)
 Трекер:    Зареєстрований   

Завантажити / скачати фільм українською



відео для новачків



 Зареєстрований:   2016-08-20 23:53
 Розмір:   12.25 GB 
 Оцінка фільму:   10/10 (Голосів: 1)
   
Ваш часовий пояс: GMT + 2 Години

Нова тема   Відповісти