Завантажити та скачати торренти українською


Nokturnal Mortum / Graveland - The Spirit Never Dies (2016)(split)(digipak)[FLAC]| Folk Symphonic Black Metal

Нові коментарі

Нова тема   Відповісти
Автор Повідомлення
kolpavel 
VIP


З нами з: 04.05.14
Востаннє: 09.12.16
Повідомлень: 1061

2016-08-20 20:39  
Nokturnal Mortum / Graveland - The Spirit Never Dies (2016)(split)(digipak)[FLAC]| Folk Symphonic Black Metal

Nokturnal Mortum / Graveland - The Spirit Never Dies (2016)(split)(digipak)[FLAC]| Folk Symphonic Black Metal


Стиль: Folk Symphonic Black Metal
Країна, місто: Україна, Харків / Польща, Вроцлав
Сайти: http://nokturnal-mortum.com/ http://www.graveland.org/
Видавець: http://www.graveland.org/
Виконавці:
Bass – Vrolok
Drums – Bairoth
Engineer – Andrey "Astargh" Veryovkin*, Brian Elliott, Max Polienko, Nikita Shkuropat
Keyboards, Vocals – Saturious
Photography By – Roman "Drauthran" Matviichuk
Vocals, Guitar – Varggoth
Vocals, Lead Guitar – Astargh

Piotr "Mścisław" Bajus – guitars
Zbigniew "Zbych" Ropicki – guitars
Bor – bass
Mirosław "Miro" Rosiński – drums
Пісні:
    1. Nokturnal Mortum - Нескореним - 03:33
    2. Nokturnal Mortum - Східний злам - 07:10
    3. Nokturnal Mortum - В кайданах часу - 09:50
    4. Graveland - Intro - 02:12
    5. Graveland - Lodowy labirynt - 07:25
    6. Graveland - Ostatni świt - 07:15

Тривалість: 00:37:25
Мова: українська (1-3), польська (4-6)
Аудіо-кодек: FLAC
Бітрейт: 937 кб/с
Джерело: трекер
Додаткова інформація:
EAC
Exact Audio Copy V1.0 beta 3 from 29. August 2011

EAC extraction logfile from 4. May 2016, 22:57

Nokturnal Mortum / Graveland / The Spirit Never Dies (split)

Used drive : Optiarc DVD RW AD-7260S Adapter: 1 ID: 1

Read mode : Secure
Utilize accurate stream : Yes
Defeat audio cache : Yes
Make use of C2 pointers : No

Read offset correction : 48
Overread into Lead-In and Lead-Out : No
Fill up missing offset samples with silence : Yes
Delete leading and trailing silent blocks : No
Null samples used in CRC calculations : Yes
Used interface : Native Win32 interface for Win NT & 2000

Used output format : Internal WAV Routines
Sample format : 44.100 Hz; 16 Bit; Stereo

TOC of the extracted CD

Track | Start | Length | Start sector | End sector
---------------------------------------------------------
1 | 0:00.00 | 3:32.11 | 0 | 15910
2 | 3:32.11 | 7:09.20 | 15911 | 48105
3 | 10:41.31 | 9:49.22 | 48106 | 92302
4 | 20:30.53 | 2:11.31 | 92303 | 102158
5 | 22:42.09 | 7:24.01 | 102159 | 135459
6 | 30:06.10 | 7:14.67 | 135460 | 168076

Range status and errors

Selected range

Filename C:\Мои документы\Nokturnal Mortum , Graveland - 2016 - The Spirit Never Dies (split).wav

Peak level 100.0 %
Extraction speed 2.7 X
Range quality 99.9 %
Test CRC FB2B798B
Copy CRC FB2B798B
Copy OK

No errors occurred

AccurateRip summary

Track 1 accurately ripped (confidence 1) [502A7F5B] (AR v2)
Track 2 accurately ripped (confidence 1) [022009F0] (AR v2)
Track 3 accurately ripped (confidence 1) [1255A6C0] (AR v2)
Track 4 accurately ripped (confidence 1) [5586A3D9] (AR v2)
Track 5 accurately ripped (confidence 1) [F514FD5A] (AR v2)
Track 6 accurately ripped (confidence 1) [C63EAFCC] (AR v2)

All tracks accurately ripped

End of status report

---- CUETools DB Plugin V2.1.4

[CTDB TOCID: swQtmhd7l1ZpiW8wju7Mgh5cONw-] found
Submit result: swQtmhd7l1ZpiW8wju7Mgh5cONw- has been confirmed
Track | CTDB Status
1 | (10/10) Accurately ripped
2 | (10/10) Accurately ripped
3 | (10/10) Accurately ripped
4 | (10/10) Accurately ripped
5 | (10/10) Accurately ripped
6 | (10/10) Accurately ripped

==== Log checksum B0BC1B9019A5D3C90AE2BB2EAEB7ED0A25EBAD669EC889E304F841446E671B16 ====


Якщо Ви справді бажаєте підтримати українське - після прослуховування, якщо музика вам сподобалась, придбайте ліцензійний диск. Підтримаймо вітчизняних виконавців!


Срібний реліз (на рейтинг впливає 50% завантаженого)
 Трекер:    Зареєстрований   

Завантажити / скачати українську музику



відео для новачків



 Зареєстрований:   2016-08-20 20:39
 Розмір:   359 MB 
 Оцінка музики:   9.3/10 (Голосів: 3)
   
kolpavel 
VIP


З нами з: 04.05.14
Востаннє: 09.12.16
Повідомлень: 1061

2016-08-20 20:42  
Ваш часовий пояс: GMT + 2 Години

Нова тема   Відповісти