Завантажити та скачати торренти українською


Голограма для короля / A Hologram for the King (2016) Remux 1080p Ukr/Eng | Sub Eng

Нові коментарі

Нова тема   Відповісти
Автор Повідомлення
Anonymous 







2016-08-20 11:46  
Голограма для короля / A Hologram for the King (2016) Remux Ukr/Eng | Sub Eng

Голограма для короля / A Hologram for the King (2016) Remux 1080p Ukr/Eng | Sub Eng

Альтернативний постер


повнорозмірні зображення відкриються по кліку (з натиснутим CTRL чи кліком середньою кнопкою мишки - у новій вкладці)

Жанр: комедія, драма
Країна: Велика Британія, Франція, Німеччина, США



Кінокомпанія: X-Filme Creative Pool, 22h22, Fábrica de Cine, Kasbah-Film Tanger, Playtone, Primeridian Entertainment
Режисер: Том Тиквер / Tom Tykwer
Актори: Том Генкс / Tom Hanks, Александр Блек / Alexander Black, Саріта Чоудрі / Sarita Choudhury, Сідсе Бабетт Кнудсен / Sidse Babett Knudsen, Трейсі Фейрвей / Tracey Fairaway, Джейн Перрі / Jane Perry, Том Скерріт / Tom Skerritt та інші

Сюжет:
У житті Алана Клея починається справжнє лихо, різко посилюються конфлікти з дружиною, бізнес руйнується, і навіть не вистачає грошей для освіти дочки. У розпачі наш герой прямує в Саудівську Аравію для просування свого зухвалого авторського проекту...


Рейтинг MPAA: R - особам до 17 років обов'язкова присутність батьків або дорослого опікуна
Вікова категорія: 16+

Тривалість: 01:38:10
Якість: Remux
Відео:
кодек:
розмір кадру: 1920 х 1080
бітрейт: 29,7 Мбіт/с

Аудіо # 1:
мова: українська
переклад: багатоголосий закадровий
кодек: -HD MA 5.1
бітрейт: 3425 Кбіт/с

Аудіо # 2:
мова: англійська
переклад: оригінал
кодек: -HD MA 5.1
бітрейт: 3440 Кбіт/с

Субтитри:
мова: англійська (повні, SDH)
тип: програмні (м'які)
формат: *.srt

Збережено оригінальні розділи, як на Blu-ray
MediaInfo
Код:
Complete name               : A Hologram for the King (2016) [Ukr,Eng sub.Eng] Remux 1080p [Hurtom].mkv
Format                      : Matroska
Format version              : Version 4 / Version 2
File size                   : 25.0 GiB
Duration                    : 1 h 38 min
Overall bit rate mode       : Variable
Overall bit rate            : 36.5 Mb/s
Movie name                  : Голограма для короля / A Hologram for the King (2016) [Ukr,Eng sub.Eng] Remux 1080p [Hurtom]
Writing library             : libebml v1.3.4 + libmatroska v1.4.5
Cover                       : Yes
Attachments                 : cover.jpg

Video
ID                          : 1
Format                      : AVC
Format/Info                 : Advanced Video Codec
Format profile              : [email protected]
Format settings, CABAC      : Yes
Format settings, ReFrames   : 4 frames
Codec ID                    : V_MPEG4/ISO/AVC
Duration                    : 1 h 38 min
Bit rate mode               : Variable
Bit rate                    : 29.7 Mb/s
Maximum bit rate            : 35.0 Mb/s
Width                       : 1 920 pixels
Height                      : 1 080 pixels
Display aspect ratio        : 16:9
Frame rate mode             : Constant
Frame rate                  : 23.976 (24000/1001) FPS
Color space                 : YUV
Chroma subsampling          : 4:2:0
Bit depth                   : 8 bits
Scan type                   : Progressive
Bits/(Pixel*Frame)          : 0.596
Stream size                 : 20.3 GiB (81%)
Title                       : Голограма для короля / A Hologram for the King (2016) Remux 1080p [ExKinoRay]
Language                    : English
Default                     : Yes
Forced                      : Yes

Audio #1
ID                          : 2
Format                      :
Format/Info                 : Digital Theater Systems
Format profile              : MA / Core
Mode                        : 16
Format settings, Endianness : Big
Codec ID                    : A_DTS
Duration                    : 1 h 38 min
Bit rate mode               : Variable / Constant
Bit rate                    : 3 425 kb/s / 1 509 kb/s
Channel(s)                  : 6 channels
Channel positions           : Front: L C R, Side: L R, LFE
Sampling rate               : 48.0 kHz
Frame rate                  : 93.750 FPS (512 spf)
Bit depth                   : 24 bits
Compression mode            : Lossless / Lossy
Stream size                 : 2.35 GiB (9%)
Title                       : MVO -HD MA 5.1 3425 kbps [Hurtom]
Language                    : Ukrainian
Default                     : Yes
Forced                      : Yes

Audio #2
ID                          : 3
Format                      :
Format/Info                 : Digital Theater Systems
Format profile              : MA / Core
Mode                        : 16
Format settings, Endianness : Big
Codec ID                    : A_DTS
Duration                    : 1 h 38 min
Bit rate mode               : Variable / Constant
Bit rate                    : 3 440 kb/s / 1 509 kb/s
Channel(s)                  : 6 channels
Channel positions           : Front: L C R, Side: L R, LFE
Sampling rate               : 48.0 kHz
Frame rate                  : 93.750 FPS (512 spf)
Bit depth                   : 24 bits
Compression mode            : Lossless / Lossy
Stream size                 : 2.36 GiB (9%)
Title                       : Original, -HD MA 5.1 3440 kbps
Language                    : English
Default                     : No
Forced                      : No

Text #1
ID                          : 4
Format                      : UTF-8
Codec ID                    : S_TEXT/UTF8
Codec ID/Info               : UTF-8 Plain Text
Duration                    : 1 h 30 min
Bit rate                    : 61 b/s
Count of elements           : 1151
Stream size                 : 40.7 KiB (0%)
Title                       : Full
Language                    : English
Default                     : No
Forced                      : No

Text #2
ID                          : 5
Format                      : UTF-8
Codec ID                    : S_TEXT/UTF8
Codec ID/Info               : UTF-8 Plain Text
Duration                    : 1 h 30 min
Bit rate                    : 66 b/s
Count of elements           : 1240
Stream size                 : 44.0 KiB (0%)
Title                       : SDH
Language                    : English
Default                     : No
Forced                      : No

Menu
00:00:00.000                : en:
00:06:26.427                : en:
00:09:26.857                : en:
00:15:03.193                : en:
00:21:33.500                : en:
00:26:52.235                : en:
00:32:34.744                : en:
00:36:51.167                : en:
00:42:17.952                : en:
00:47:27.261                : en:
00:54:37.816                : en:
00:59:26.229                : en:
01:06:18.974                : en:
01:10:21.508                : en:
01:17:45.118                : en:
01:23:17.492                : en:
01:28:06.864                : en:
01:33:28.811                : en:
01:42:20.759                : en:
01:44:26.426                : en:


Джерело: &


Золотий реліз (завантажене не впливає на рейтинг)
 Трекер:    Зареєстрований   

Завантажити / скачати фільм українською



відео для новачків



 Зареєстрований:   2016-08-20 11:46
 Розмір:   25.04 GB 
 Оцінка фільму:   3.6/10 (Голосів: 14)
   
Ваш часовий пояс: GMT + 2 Години

Нова тема   Відповісти