Завантажити та скачати торренти українською


Голограма для короля / A Hologram for the King (2016) 1080p Ukr/Eng | Sub Eng

Нові коментарі

Нова тема   Відповісти
Автор Повідомлення
Anonymous 







2016-08-20 10:25  
Голограма для короля / A Hologram for the King (2016) 1080p Ukr/Eng | Sub Eng

Голограма для короля / A Hologram for the King (2016) 1080p Ukr/Eng | Sub Eng

Альтернативний постер


повнорозмірні зображення відкриються по кліку (з натиснутим CTRL чи кліком середньою кнопкою мишки - у новій вкладці)

Жанр: комедія, драма
Країна: Велика Британія, Франція, Німеччина, США



Кінокомпанія: X-Filme Creative Pool, 22h22, Fábrica de Cine, Kasbah-Film Tanger, Playtone, Primeridian Entertainment
Режисер: Том Тиквер / Tom Tykwer
Актори: Том Генкс / Tom Hanks, Александр Блек / Alexander Black, Саріта Чоудрі / Sarita Choudhury, Сідсе Бабетт Кнудсен / Sidse Babett Knudsen, Трейсі Фейрвей / Tracey Fairaway, Джейн Перрі / Jane Perry, Том Скерріт / Tom Skerritt та інші

Сюжет:
У житті Алана Клея починається справжнє лихо, різко посилюються конфлікти з дружиною, бізнес руйнується, і навіть не вистачає грошей для освіти дочки. У розпачі наш герой прямує в Саудівську Аравію для просування свого зухвалого авторського проекту...


Рейтинг MPAA: R - особам до 17 років обов'язкова присутність батьків або дорослого опікуна
Вікова категорія: 16+

Тривалість: 01:38:10
Якість: 1080p
Відео:
кодек:
розмір кадру: 1920 х 802
бітрейт: 14,9 Мбіт/с [crf=18.1]

Аудіо # 1:
мова: українська
переклад: багатоголосий закадровий
кодек: 5.1
бітрейт: 1509 Кбіт/с

Аудіо # 2:
мова: англійська
переклад: оригінал
кодек: 5.1
бітрейт: 1509 Кбіт/с

Субтитри:
мова: англійська (повні, SDH)
тип: програмні (м'які)
формат: *.srt

Збережено оригінальні розділи, як на Blu-ray
MediaInfo
Код:
Complete name               : A Hologram for the King (2016) [Ukr,Eng sub.Eng] 1080p [Hurtom].mkv
Format                      : Matroska
Format version              : Version 4 / Version 2
File size                   : 12.3 GiB
Duration                    : 1 h 38 min
Overall bit rate            : 17.9 Mb/s
Movie name                  : Голограма для короля / A Hologram for the King (2016) [Ukr,Eng sub.Eng] 1080p [Hurtom]
Writing library             : libebml v1.3.4 + libmatroska v1.4.5
Cover                       : Yes
Attachments                 : cover.jpg

Video
ID                          : 1
Format                      : AVC
Format/Info                 : Advanced Video Codec
Format profile              : [email protected]
Format settings, CABAC      : Yes
Format settings, ReFrames   : 5 frames
Codec ID                    : V_MPEG4/ISO/AVC
Duration                    : 1 h 38 min
Bit rate                    : 14.9 Mb/s
Width                       : 1 920 pixels
Height                      : 802 pixels
Display aspect ratio        : 2.40:1
Frame rate mode             : Constant
Frame rate                  : 23.976 (24000/1001) FPS
Color space                 : YUV
Chroma subsampling          : 4:2:0
Bit depth                   : 8 bits
Scan type                   : Progressive
Bits/(Pixel*Frame)          : 0.403
Stream size                 : 10.2 GiB (83%)
Title                       : Голограма для короля / A Hologram for the King (2016) 1080p [ExKinoRay]
Writing library             : core 146 r2538 121396c
Encoding settings           : cabac=1 / ref=5 / deblock=1:-3:-3 / analyse=0x3:0x133 / me=tesa / subme=11 / psy=1 / psy_rd=1.05:0.00 / mixed_ref=1 / me_range=32 / chroma_me=1 / trellis=2 / 8x8dct=1 / cqm=0 / deadzone=21,11 / fast_pskip=0 / chroma_qp_offset=-2 / threads=60 / lookahead_threads=6 / sliced_threads=0 / nr=0 / decimate=0 / interlaced=0 / bluray_compat=0 / constrained_intra=0 / bframes=11 / b_pyramid=2 / b_adapt=2 / b_bias=0 / direct=3 / weightb=1 / open_gop=0 / weightp=2 / keyint=240 / keyint_min=23 / scenecut=40 / intra_refresh=0 / rc_lookahead=150 / rc=crf / mbtree=0 / crf=18.1 / qcomp=0.60 / qpmin=0 / qpmax=69 / qpstep=4 / vbv_maxrate=62500 / vbv_bufsize=78125 / crf_max=0.0 / nal_hrd=none / filler=0 / ip_ratio=1.40 / pb_ratio=1.30 / aq=1:0.80
Language                    : English
Default                     : Yes
Forced                      : Yes

Audio #1
ID                          : 2
Format                      :
Format/Info                 : Digital Theater Systems
Mode                        : 16
Format settings, Endianness : Big
Codec ID                    : A_DTS
Duration                    : 1 h 38 min
Bit rate mode               : Constant
Bit rate                    : 1 509 kb/s
Channel(s)                  : 6 channels
Channel positions           : Front: L C R, Side: L R, LFE
Sampling rate               : 48.0 kHz
Frame rate                  : 93.750 FPS (512 spf)
Bit depth                   : 24 bits
Compression mode            : Lossy
Stream size                 : 1.03 GiB (8%)
Title                       : MVO 5.1 1509 kbps [Hurtom]
Language                    : Ukrainian
Default                     : Yes
Forced                      : Yes

Audio #2
ID                          : 3
Format                      :
Format/Info                 : Digital Theater Systems
Mode                        : 16
Format settings, Endianness : Big
Codec ID                    : A_DTS
Duration                    : 1 h 38 min
Bit rate mode               : Constant
Bit rate                    : 1 509 kb/s
Channel(s)                  : 6 channels
Channel positions           : Front: L C R, Side: L R, LFE
Sampling rate               : 48.0 kHz
Frame rate                  : 93.750 FPS (512 spf)
Bit depth                   : 24 bits
Compression mode            : Lossy
Stream size                 : 1.03 GiB (8%)
Title                       : Original, 5.1 1509 kbps
Language                    : English
Default                     : No
Forced                      : No

Text #1
ID                          : 4
Format                      : UTF-8
Codec ID                    : S_TEXT/UTF8
Codec ID/Info               : UTF-8 Plain Text
Duration                    : 1 h 30 min
Bit rate                    : 61 b/s
Count of elements           : 1151
Stream size                 : 40.7 KiB (0%)
Title                       : Full
Language                    : English
Default                     : No
Forced                      : No

Text #2
ID                          : 5
Format                      : UTF-8
Codec ID                    : S_TEXT/UTF8
Codec ID/Info               : UTF-8 Plain Text
Duration                    : 1 h 30 min
Bit rate                    : 66 b/s
Count of elements           : 1240
Stream size                 : 44.0 KiB (0%)
Title                       : SDH
Language                    : English
Default                     : No
Forced                      : No

Menu
00:00:00.000                : en:00:00:00.000
00:05:09.476                : en:00:05:09.476
00:12:09.687                : en:00:12:09.687
00:17:35.346                : en:00:17:35.346
00:24:02.149                : en:00:24:02.149
00:32:05.382                : en:00:32:05.382
00:35:27.041                : en:00:35:27.041
00:43:32.902                : en:00:43:32.902
00:49:44.106                : en:00:49:44.106
00:53:59.361                : en:00:53:59.361
01:00:51.147                : en:01:00:51.147
01:08:51.794                : en:01:08:51.794
01:11:05.219                : en:01:11:05.219
01:16:52.107                : en:01:16:52.107
01:24:03.705                : en:01:24:03.705
01:31:58.429                : en:01:31:58.429


Джерело: &


 Трекер:    Зареєстрований   

Завантажити / скачати фільм українською



відео для новачків



 Зареєстрований:   2016-08-20 10:25
 Розмір:   12.27 GB 
 Оцінка фільму:   4/10 (Голосів: 16)
   
Anonymous 







2016-08-20 10:29  
також готую ремукс з -HD MA
sandman 
Свій


З нами з: 12.08.12
Востаннє: 08.12.16
Повідомлень: 82

2016-08-20 10:34  
супер, нарешті в якості! почекаю на ремукс Happy
Anonymous 







2016-08-20 11:54  
vovang6 
Свій


З нами з: 27.08.12
Востаннє: 07.12.16
Повідомлень: 61

2016-08-22 18:39  
Я до кінця не зрозумів сенс цього фільму, ніби то чогось не вистачило... 7з10.
Ваш часовий пояс: GMT + 2 Години

Нова тема   Відповісти