Завантажити та скачати торренти українською


Голограма для короля / A Hologram for the King (2016) AVC Ukr/Eng | Sub Eng

Нові коментарі

Нова тема   Відповісти
Автор Повідомлення
Anonymous 







2016-08-20 08:15  
Голограма для короля / A Hologram for the King (2016) AVC Ukr/Eng | Sub Eng

Голограма для короля / A Hologram for the King (2016) AVC Ukr/Eng | Sub Eng

Альтернативний постер


повнорозмірні зображення відкриються по кліку (з натиснутим CTRL чи кліком середньою кнопкою мишки - у новій вкладці)

Жанр: комедія, драма
Країна: Велика Британія, Франція, Німеччина, США



Кінокомпанія: X-Filme Creative Pool, 22h22, Fábrica de Cine, Kasbah-Film Tanger, Playtone, Primeridian Entertainment
Режисер: Том Тиквер / Tom Tykwer
Актори: Том Генкс / Tom Hanks, Александр Блек / Alexander Black, Саріта Чоудрі / Sarita Choudhury, Сідсе Бабетт Кнудсен / Sidse Babett Knudsen, Трейсі Фейрвей / Tracey Fairaway, Джейн Перрі / Jane Perry, Том Скерріт / Tom Skerritt та інші

Сюжет:
У житті Алана Клея починається справжнє лихо, різко посилюються конфлікти з дружиною, бізнес руйнується, і навіть не вистачає грошей для освіти дочки. У розпачі наш герой прямує в Саудівську Аравію для просування свого зухвалого авторського проекту...


Рейтинг MPAA: R - особам до 17 років обов'язкова присутність батьків або дорослого опікуна
Вікова категорія: 16+

Тривалість: 01:38:10
Якість: AVC
Відео:
кодек:
розмір кадру: 1024 х 428
бітрейт: 2416 Кбіт/с

Аудіо # 1:
мова: українська
переклад: багатоголосий закадровий
кодек: 5.1
бітрейт: 448 Кбіт/с

Аудіо # 2:
мова: англійська
переклад: оригінал
кодек: 5.1
бітрейт: 448 Кбіт/с

Субтитри:
мова: англійська (повні, SDH)
тип: програмні (м'які)
формат: *.srt
MediaInfo
Код:
Complete name               : A Hologram for the King (2016) [Ukr,Eng sub.Eng] AVC [Hurtom].mkv
Format                      : Matroska
Format version              : Version 4 / Version 2
File size                   : 2.27 GiB
Duration                    : 1 h 38 min
Overall bit rate            : 3 310 kb/s
Movie name                  : Голограма для короля / A Hologram for the King (2016) [Ukr,Eng sub.Eng] AVC [Hurtom]
Writing library             : libebml v1.3.4 + libmatroska v1.4.5
Cover                       : Yes
Attachments                 : cover.jpg

Video
ID                          : 1
Format                      : AVC
Format/Info                 : Advanced Video Codec
Format profile              : [email protected]
Format settings, CABAC      : Yes
Format settings, ReFrames   : 12 frames
Codec ID                    : V_MPEG4/ISO/AVC
Duration                    : 1 h 38 min
Bit rate                    : 2 416 kb/s
Width                       : 1 024 pixels
Height                      : 428 pixels
Display aspect ratio        : 2.40:1
Frame rate mode             : Constant
Frame rate                  : 23.976 FPS
Color space                 : YUV
Chroma subsampling          : 4:2:0
Bit depth                   : 8 bits
Scan type                   : Progressive
Bits/(Pixel*Frame)          : 0.230
Stream size                 : 1.65 GiB (73%)
Title                       : Голограма для короля / A Hologram for the King (2016) AVC [R.G.Resident-schultz]
Writing library             : core 146 r2538 121396c
Encoding settings           : cabac=1 / ref=12 / deblock=1:-3:-3 / analyse=0x3:0x113 / me=umh / subme=11 / psy=1 / psy_rd=1.00:0.00 / mixed_ref=1 / me_range=48 / chroma_me=1 / trellis=2 / 8x8dct=1 / cqm=0 / deadzone=21,11 / fast_pskip=0 / chroma_qp_offset=-2 / threads=12 / lookahead_threads=3 / sliced_threads=0 / nr=0 / decimate=0 / interlaced=0 / bluray_compat=0 / constrained_intra=0 / bframes=13 / b_pyramid=2 / b_adapt=2 / b_bias=0 / direct=3 / weightb=1 / open_gop=0 / weightp=2 / keyint=240 / keyint_min=23 / scenecut=40 / intra_refresh=0 / rc_lookahead=40 / rc=2pass / mbtree=1 / bitrate=2416 / ratetol=1.0 / qcomp=0.60 / qpmin=0 / qpmax=69 / qpstep=4 / cplxblur=20.0 / qblur=0.5 / vbv_maxrate=14000 / vbv_bufsize=14000 / nal_hrd=none / filler=0 / ip_ratio=1.40 / aq=1:1.00
Language                    : English
Default                     : Yes
Forced                      : Yes

Audio #1
ID                          : 2
Format                      : AC-3
Format/Info                 : Audio Coding 3
Mode extension              : CM (complete main)
Format settings, Endianness : Big
Codec ID                    : A_AC3
Duration                    : 1 h 38 min
Bit rate mode               : Constant
Bit rate                    : 448 kb/s
Channel(s)                  : 6 channels
Channel positions           : Front: L C R, Side: L R, LFE
Sampling rate               : 48.0 kHz
Frame rate                  : 31.250 FPS (1536 spf)
Compression mode            : Lossy
Stream size                 : 315 MiB (14%)
Title                       : MVO 5.1 448 kbps [Hurtom]
Language                    : Ukrainian
Default                     : Yes
Forced                      : Yes

Audio #2
ID                          : 3
Format                      : AC-3
Format/Info                 : Audio Coding 3
Mode extension              : CM (complete main)
Format settings, Endianness : Big
Codec ID                    : A_AC3
Duration                    : 1 h 38 min
Bit rate mode               : Constant
Bit rate                    : 448 kb/s
Channel(s)                  : 6 channels
Channel positions           : Front: L C R, Side: L R, LFE
Sampling rate               : 48.0 kHz
Frame rate                  : 31.250 FPS (1536 spf)
Compression mode            : Lossy
Stream size                 : 315 MiB (14%)
Title                       : Original, 5.1 448 kbps
Language                    : English
Default                     : No
Forced                      : No

Text #1
ID                          : 4
Format                      : UTF-8
Codec ID                    : S_TEXT/UTF8
Codec ID/Info               : UTF-8 Plain Text
Duration                    : 1 h 30 min
Bit rate                    : 65 b/s
Count of elements           : 1160
Stream size                 : 43.7 KiB (0%)
Title                       : FULL
Language                    : English
Default                     : No
Forced                      : No

Text #2
ID                          : 5
Format                      : UTF-8
Codec ID                    : S_TEXT/UTF8
Codec ID/Info               : UTF-8 Plain Text
Duration                    : 1 h 30 min
Bit rate                    : 69 b/s
Count of elements           : 1269
Stream size                 : 46.5 KiB (0%)
Title                       : SDH
Language                    : English
Default                     : No
Forced                      : No


Джерело: &


 Трекер:    Зареєстрований   

Завантажити / скачати фільм українською



відео для новачків



 Зареєстрований:   2016-08-20 08:41
 Розмір:   2.27 GB 
 Оцінка фільму:   5.8/10 (Голосів: 29)
   
WorldMaster 
Частий відвідувач


З нами з: 10.10.11
Востаннє: 30.11.16
Повідомлень: 46

2016-08-22 10:26  
Життєвий фільм, для мого віку - 30 років і старше.
DeniUA 
Новенький


З нами з: 02.11.13
Востаннє: 29.11.16
Повідомлень: 5

2016-10-30 00:17  
Фільм - супер, особливо для прихильників Тома Хенкса.
Ваш часовий пояс: GMT + 2 Години

Нова тема   Відповісти