Завантажити та скачати торренти українською


Пеле: Народження легенди / Pelé: Birth of a Legend (2016) Remux 1080p Ukr/Eng | Sub Eng

Нові коментарі

Нова тема   Відповісти
Автор Повідомлення
Anonymous 







2016-08-19 18:51  
Пеле: Народження легенди / Pelé: Birth of a Legend (2016) Remux Ukr/Eng | Sub Eng

Пеле: Народження легенди / Pelé: Birth of a Legend (2016) Remux 1080p Ukr/Eng | Sub Eng


Жанр: драма, біографічний, спорт
Країна: США



Кінокомпанія: Imagine Entertainment, Seine Pictures, Zohar Internationa
Режисер: Джефф Цимбаліст / Jeff Zimbalist, Майкл Цимбаліст / Michael Zimbalist
Актори: Кевін де Паула / Kevin de Paula, Леонардо Ліма Карвальо / Leonardo Lima Carvalho, Сеу Жоржі / Seu Jorge, Маріана Нюнс / Mariana Nunes, Вінсент Д’Онофріо / Vincent D'Onofrio, Андре Маттос / André Mattos, Рафаель Енрікес / Rafael Henriques, Родріго Санторо / Rodrigo Santoro, Дієго Бонета / Diego Boneta, Колм Міні / Colm Meaney, Пеле / Pelé та інші

Сюжет:
У невеликому бразильському містечку в бідній родині зростав хлопчик Едсон. Його батько в минулому був футболістом, тож до захоплення сина цією грою завжди ставився з повагою і навчав усього, що знав і вмів сам. Із семи років хлопчик почав виступати за місцеву дитячу збірну, а в 15-ть його запросили грати за команду "Сантос". Згодом клуб став всесвітньо відомим, і багато в чому завдяки хлопцю, якого світ знає під іменем Пеле.



Рейтинг MPAA: PG - рекомендується присутність батьків
Вікова категорія: 12+

Тривалість: 01:47:06
Якість: Remux
Відео:
кодек:
розмір кадру: 1920 х 800
бітрейт: 33 Мбіт/с

Аудіо # 1:
мова: українська
переклад: багатоголосий закадровий
кодек: -HD MA 5.1
бітрейт: 3945 Кбіт/с

Аудіо # 2:
мова: англійська
переклад: оригінал
кодек: -HD MA 5.1
бітрейт: 4018 Кбіт/с

Субтитри:
мова: англійська
тип: програмні (м'які)
формат: *.srt

Збережено оригінальні розділи, як на Blu-ray.
MediaInfo
Код:
Complete name               : Pele. Birth of a Legend (2016) [Ukr,Eng sub.Eng] Remux 1080p [Hurtom].mkv
Format                      : Matroska
Format version              : Version 4 / Version 2
File size                   : 30.6 GiB
Duration                    : 1 h 47 min
Overall bit rate mode       : Variable
Overall bit rate            : 40.9 Mb/s
Movie name                  : Пеле: Народження легенди / Pelé: Birth of a Legend (2016) [Ukr,Eng sub.Eng] Remux 1080p [Hurtom]
Writing library             : libebml v1.3.4 + libmatroska v1.4.5
Cover                       : Yes
Attachments                 : cover.jpg

Video
ID                          : 1
Format                      : AVC
Format/Info                 : Advanced Video Codec
Format profile              : [email protected]
Format settings, CABAC      : Yes
Format settings, ReFrames   : 3 frames
Codec ID                    : V_MPEG4/ISO/AVC
Duration                    : 1 h 47 min
Bit rate mode               : Variable
Bit rate                    : 33.0 Mb/s
Maximum bit rate            : 36.0 Mb/s
Width                       : 1 920 pixels
Height                      : 1 080 pixels
Display aspect ratio        : 16:9
Frame rate mode             : Constant
Frame rate                  : 23.976 (24000/1001) FPS
Color space                 : YUV
Chroma subsampling          : 4:2:0
Bit depth                   : 8 bits
Scan type                   : Progressive
Bits/(Pixel*Frame)          : 0.664
Stream size                 : 24.6 GiB (80%)
Title                       : Пеле: Народження легенди / Pelé: Birth of a Legend (2016) Remux [ExKinoRay]
Writing library             : core 146 r2538 121396c
Encoding settings           : cabac=1 / ref=4 / deblock=1:-1:-1 / analyse=0x3:0x133 / me=umh / subme=10 / psy=1 / psy_rd=1.00:0.15 / mixed_ref=1 / me_range=24 / chroma_me=1 / trellis=2 / 8x8dct=1 / cqm=0 / deadzone=21,11 / fast_pskip=1 / chroma_qp_offset=-3 / threads=24 / lookahead_threads=2 / sliced_threads=0 / slices=4 / nr=0 / decimate=1 / interlaced=0 / bluray_compat=1 / constrained_intra=0 / bframes=3 / b_pyramid=1 / b_adapt=2 / b_bias=0 / direct=3 / weightb=1 / open_gop=1 / weightp=1 / keyint=24 / keyint_min=1 / scenecut=40 / intra_refresh=0 / rc_lookahead=24 / rc=2pass / mbtree=1 / bitrate=33000 / ratetol=1.0 / qcomp=0.60 / qpmin=0 / qpmax=69 / qpstep=4 / cplxblur=20.0 / qblur=0.5 / vbv_maxrate=36000 / vbv_bufsize=30000 / nal_hrd=vbr / filler=0 / ip_ratio=1.40 / aq=1:1.00
Language                    : English
Default                     : Yes
Forced                      : Yes
Color range                 : Limited
Color primaries             : BT.709
Transfer characteristics    : BT.709
Matrix coefficients         : BT.709

Audio #1
ID                          : 2
Format                      :
Format/Info                 : Digital Theater Systems
Format profile              : MA / Core
Mode                        : 16
Format settings, Endianness : Big
Codec ID                    : A_DTS
Duration                    : 1 h 47 min
Bit rate mode               : Variable / Constant
Bit rate                    : 3 945 kb/s / 1 509 kb/s
Channel(s)                  : 6 channels
Channel positions           : Front: L C R, Side: L R, LFE
Sampling rate               : 48.0 kHz
Frame rate                  : 93.750 FPS (512 spf)
Bit depth                   : 24 bits
Compression mode            : Lossless / Lossy
Stream size                 : 2.95 GiB (10%)
Title                       : Dub, -HD MA 5.1 ~4000 kbps [Hurtom]
Language                    : Ukrainian
Default                     : Yes
Forced                      : Yes

Audio #2
ID                          : 3
Format                      :
Format/Info                 : Digital Theater Systems
Format profile              : MA / Core
Mode                        : 16
Format settings, Endianness : Big
Codec ID                    : A_DTS
Duration                    : 1 h 47 min
Bit rate mode               : Variable / Constant
Bit rate                    : 4 018 kb/s / 1 509 kb/s
Channel(s)                  : 6 channels
Channel positions           : Front: L C R, Side: L R, LFE
Sampling rate               : 48.0 kHz
Frame rate                  : 93.750 FPS (512 spf)
Bit depth                   : 24 bits
Compression mode            : Lossless / Lossy
Stream size                 : 3.01 GiB (10%)
Title                       : Original, -HD MA 5.1 ~4000 kbps
Language                    : English
Default                     : No
Forced                      : No

Text
ID                          : 4
Format                      : UTF-8
Codec ID                    : S_TEXT/UTF8
Codec ID/Info               : UTF-8 Plain Text
Duration                    : 1 h 40 min
Bit rate                    : 65 b/s
Count of elements           : 1361
Stream size                 : 48.2 KiB (0%)
Title                       : Full
Language                    : English
Default                     : No
Forced                      : No

Menu
00:00:00.000                : en:00:00:00.000
00:08:37.809                : en:00:08:37.809
00:15:48.156                : en:00:15:48.156
00:27:30.983                : en:00:27:30.983
00:34:55.093                : en:00:34:55.093
00:43:33.569                : en:00:43:33.569
00:53:53.772                : en:00:53:53.772
01:04:19.731                : en:01:04:19.731
01:14:40.309                : en:01:14:40.309
01:21:35.057                : en:01:21:35.057
01:29:41.001                : en:01:29:41.001
01:42:00.072                : en:01:42:00.072


Джерело: &


ЗАЛИШАЙТЕСЬ ЯКОМОГА ДОВШЕ НА РОЗДАЧІ!
СКАЧАВ САМ - ДАЙ СКАЧАТИ ІНШИМ


Золотий реліз (завантажене не впливає на рейтинг)
 Трекер:    Зареєстрований   

Завантажити / скачати фільм українською



відео для новачків



 Зареєстрований:   2016-08-19 20:19
 Розмір:   30.56 GB 
 Оцінка фільму:   3.9/10 (Голосів: 15)
   
bot 
робот


З нами з: 30.09.07
Востаннє: 26.05.05
Повідомлень: 15968

2016-08-19 20:19  
Тему перенесено з Анонси релізів до форуму Фільми в HD


igor911

Anonymous 







2016-08-19 20:37  
Через брак місця на HDD не зможу довго зберігати реліз, тому прошу не тікати з роздачі.
Ваш часовий пояс: GMT + 2 Години

Нова тема   Відповісти