Завантажити та скачати торренти українською


Пеле: Народження легенди / Pelé: Birth of a Legend (2016) 720p Ukr/Eng | Sub Eng

Нові коментарі

Нова тема   Відповісти
Автор Повідомлення
Anonymous 







2016-08-19 17:10  
Пеле: Народження легенди / Pelé: Birth of a Legend (2016) 720p Ukr/Eng | Sub Eng

Пеле: Народження легенди / Pelé: Birth of a Legend (2016) 720p Ukr/Eng | Sub Eng


Жанр: драма, біографічний, спорт
Країна: США



Кінокомпанія: Imagine Entertainment, Seine Pictures, Zohar Internationa
Режисер: Джефф Цимбаліст / Jeff Zimbalist, Майкл Цимбаліст / Michael Zimbalist
Актори: Кевін де Паула / Kevin de Paula, Леонардо Ліма Карвальо / Leonardo Lima Carvalho, Сеу Жоржі / Seu Jorge, Маріана Нюнс / Mariana Nunes, Вінсент Д’Онофріо / Vincent D'Onofrio, Андре Маттос / André Mattos, Рафаель Енрікес / Rafael Henriques, Родріго Санторо / Rodrigo Santoro, Дієго Бонета / Diego Boneta, Колм Міні / Colm Meaney, Пеле / Pelé та інші

Сюжет:
У невеликому бразильському містечку в бідній родині зростав хлопчик Едсон. Його батько в минулому був футболістом, тож до захоплення сина цією грою завжди ставився з повагою і навчав усього, що знав і вмів сам. Із семи років хлопчик почав виступати за місцеву дитячу збірну, а в 15-ть його запросили грати за команду "Сантос". Згодом клуб став всесвітньо відомим, і багато в чому завдяки хлопцю, якого світ знає під іменем Пеле.



Рейтинг MPAA: PG - рекомендується присутність батьків
Вікова категорія: 12+

Тривалість: 01:47:06
Якість: 720p
Відео:
кодек:
розмір кадру: 1280 х 534
бітрейт: 4841 Кбіт/с [crf=17.3]

Аудіо # 1:
мова: українська
переклад: багатоголосий закадровий
кодек: 5.1
бітрейт: 1509 Кбіт/с

Аудіо # 2:
мова: англійська
переклад: оригінал
кодек: 5.1
бітрейт: 1509 Кбіт/с

Субтитри:
мова: англійська
тип: програмні (м'які)
формат: *.srt

Збережено оригінальні розділи, як на Blu-ray.
MediaInfo
Код:
Complete name               : Pele. Birth of a Legend (2016) [Ukr,Eng sub.Eng] 720p [Hurtom].mkv
Format                      : Matroska
Format version              : Version 4 / Version 2
File size                   : 5.88 GiB
Duration                    : 1 h 47 min
Overall bit rate            : 7 863 kb/s
Movie name                  : Пеле: Народження легенди / Pelé: Birth of a Legend (2016) [Ukr,Eng sub.Eng] 720p [Hurtom]
Encoded date                : UTC 2016-08-19 14:49:05
Writing application         : mkvmerge v9.3.1 ('Mask Machine') 64bit
Writing library             : libebml v1.3.4 + libmatroska v1.4.5
Cover                       : Yes
Attachments                 : cover.jpg

Video
ID                          : 1
Format                      : AVC
Format/Info                 : Advanced Video Codec
Format profile              : [email protected]
Format settings, CABAC      : Yes
Format settings, ReFrames   : 12 frames
Codec ID                    : V_MPEG4/ISO/AVC
Duration                    : 1 h 47 min
Bit rate                    : 4 841 kb/s
Width                       : 1 280 pixels
Height                      : 534 pixels
Display aspect ratio        : 2.40:1
Frame rate mode             : Constant
Frame rate                  : 23.976 (24000/1001) FPS
Color space                 : YUV
Chroma subsampling          : 4:2:0
Bit depth                   : 8 bits
Scan type                   : Progressive
Bits/(Pixel*Frame)          : 0.295
Stream size                 : 3.62 GiB (62%)
Title                       : Пеле: Народження легенди / Pelé: Birth of a Legend (2016) 720p [ExKinoRay]
Writing library             : core 142 r2431+42 c69a006 tMod [[email protected] X86_64]
Encoding settings           : cabac=1 / ref=12 / deblock=1:-3:-3 / analyse=0x3:0x133 / me=umh / subme=11 / psy=1 / fade_compensate=0.00 / psy_rd=1.05:1.00 / mixed_ref=1 / me_range=32 / chroma_me=1 / trellis=2 / 8x8dct=1 / cqm=0 / deadzone=21,11 / fast_pskip=0 / chroma_qp_offset=-4 / threads=12 / lookahead_threads=2 / sliced_threads=0 / nr=0 / decimate=0 / interlaced=0 / bluray_compat=0 / constrained_intra=0 / fgo=0 / bframes=8 / b_pyramid=2 / b_adapt=2 / b_bias=0 / direct=3 / weightb=1 / open_gop=0 / weightp=2 / keyint=240 / keyint_min=23 / scenecut=40 / intra_refresh=0 / rc_lookahead=60 / rc=crf / mbtree=0 / crf=17.3000 / qcomp=0.60 / qpmin=0:0:0 / qpmax=69:69:69 / qpstep=4 / vbv_maxrate=40000 / vbv_bufsize=30000 / crf_max=0.0 / nal_hrd=none / filler=0 / ip_ratio=1.40 / pb_ratio=1.30 / aq=1:1.00 / aq-sensitivity=10.00 / aq-factor=1.00:1.00:1.00 / aq2=0 / aq3=0
Language                    : English
Default                     : Yes
Forced                      : Yes

Audio #1
ID                          : 2
Format                      :
Format/Info                 : Digital Theater Systems
Mode                        : 16
Format settings, Endianness : Big
Codec ID                    : A_DTS
Duration                    : 1 h 47 min
Bit rate mode               : Constant
Bit rate                    : 1 509 kb/s
Channel(s)                  : 6 channels
Channel positions           : Front: L C R, Side: L R, LFE
Sampling rate               : 48.0 kHz
Frame rate                  : 93.750 FPS (512 spf)
Bit depth                   : 24 bits
Compression mode            : Lossy
Stream size                 : 1.13 GiB (19%)
Title                       : MVO, 5.1 1509 kbps [Hurtom]
Language                    : Ukrainian
Default                     : Yes
Forced                      : Yes

Audio #2
ID                          : 3
Format                      :
Format/Info                 : Digital Theater Systems
Mode                        : 16
Format settings, Endianness : Big
Codec ID                    : A_DTS
Duration                    : 1 h 47 min
Bit rate mode               : Constant
Bit rate                    : 1 509 kb/s
Channel(s)                  : 6 channels
Channel positions           : Front: L C R, Side: L R, LFE
Sampling rate               : 48.0 kHz
Frame rate                  : 93.750 FPS (512 spf)
Bit depth                   : 24 bits
Compression mode            : Lossy
Stream size                 : 1.13 GiB (19%)
Title                       : Original, 5.1 1509 kbps
Language                    : English
Default                     : No
Forced                      : No

Text
ID                          : 4
Format                      : UTF-8
Codec ID                    : S_TEXT/UTF8
Codec ID/Info               : UTF-8 Plain Text
Duration                    : 1 h 40 min
Bit rate                    : 65 b/s
Count of elements           : 1362
Stream size                 : 48.4 KiB (0%)
Title                       : Full
Language                    : English
Default                     : No
Forced                      : No

Menu
00:00:00.000                : en:00:00:00.000
00:08:37.809                : en:00:08:37.809
00:15:48.156                : en:00:15:48.156
00:27:30.983                : en:00:27:30.983
00:34:55.093                : en:00:34:55.093
00:43:33.569                : en:00:43:33.569
00:53:53.772                : en:00:53:53.772
01:04:19.731                : en:01:04:19.731
01:14:40.309                : en:01:14:40.309
01:21:35.057                : en:01:21:35.057
01:29:41.001                : en:01:29:41.001
01:42:00.072                : en:01:42:00.072


Джерело: &


ЗАЛИШАЙТЕСЬ ЯКОМОГА ДОВШЕ НА РОЗДАЧІ!
СКАЧАВ САМ - ДАЙ СКАЧАТИ ІНШИМ


 Трекер:    Зареєстрований   

Завантажити / скачати фільм українською



відео для новачків



 Зареєстрований:   2016-08-19 17:10
 Розмір:   5.88 GB 
 Оцінка фільму:   7.4/10 (Голосів: 37)
   
Anonymous 







2016-08-19 17:26  
Українська доріжка в 5.1 640 Кбіт/с
https://mega.nz/#!pAcAFJyJ!hZ5Kn6WDgUFXBs8mxdki9WySG3khvTUYDkXeyXtQaM8

student1508 
Поважний учасник


З нами з: 27.02.10
Востаннє: 08.12.16
Повідомлень: 216

2016-08-19 19:47  
AVC очікується?
radium 
Частий відвідувач


З нами з: 22.10.12
Востаннє: 05.12.16
Повідомлень: 36

2016-08-20 17:59  
Не дивлячись не всі перекручування і перебільшення фактів, фільм сподобався.
Anonymous 







2016-08-21 10:40  
student1508, ось AVC
Wizard_Harry 
Свій


З нами з: 11.10.13
Востаннє: 07.12.16
Повідомлень: 111

2016-08-28 15:48  
Не спортивний фанат, вболіваю лиш під час гри національної збірної і все ж фільм дуже сподобався, місцями мурашки пробігали. Дякую
ktw14 
Свій


З нами з: 24.03.11
Востаннє: 07.12.16
Повідомлень: 118

2016-09-02 23:13  
Гарний і мотивуючи фільм. Дійсно варто переглянути!
andreu1999 
Свій


З нами з: 20.10.14
Востаннє: 08.12.16
Повідомлень: 79

2016-12-06 16:52  
Дуже сподобався фільм, незнаю чому але він нагадав мені кіно: 1+1
9 з 10.

Ваш часовий пояс: GMT + 2 Години

Нова тема   Відповісти